Subcategories

joseph_haydn_symphonies_93-95

Posted By: alekhno
joseph_haydn_symphonies_93-95

Franz Joseph Haydn - Symphonies 93-95
Classical | X Lossless Decoder Rip | FLAC, CUE, LOG | 1 CD | Covers | 286 Mb | rs.com | 2003
The Hanover Band, Roy Goodman


Symphony No. 93 in D major, H. 1/93
Symphony No. 94 in G major ("Surprise"), H. 1/94
Symphony No. 95 in C minor, H. 1/95


(International Record Rewiew)

X Lossless Decoder version 20090320 (105.1)

XLD extraction logfile from 2009-03-27 23:55:55 +0300

Roy Goodman - The Hanover Band / Haydn: Symphonies 93-95

Used drive : HL-DT-ST DVDRW GSA-S10N (revision AP12)

Use cdparanoia mode : NO
Disable audio cache : NO
Make use of C2 pointers : NO
Read offset correction : 667
Max retry count : 100

TOC of the extracted CD
Track | Start | Length | Start sector | End sector
––––––––––––––––––––––––––––-
1 | 00:00:00 | 07:51:57 | 0 | 35381
2 | 07:51:57 | 05:36:15 | 35382 | 60596
3 | 13:27:72 | 04:22:23 | 60597 | 80269
4 | 17:50:20 | 05:25:37 | 80270 | 104681
5 | 23:15:57 | 08:41:15 | 104682 | 143771
6 | 31:56:72 | 06:15:73 | 143772 | 171969
7 | 38:12:70 | 04:36:00 | 171970 | 192669
8 | 42:48:70 | 04:02:67 | 192670 | 210886
9 | 46:51:62 | 05:51:63 | 210887 | 237274
10 | 52:43:50 | 04:26:25 | 237275 | 257249
11 | 57:10:00 | 04:42:12 | 257250 | 278411
12 | 61:52:12 | 03:39:70 | 278412 | 294906

List of alternate offset correction values
# | Absolute | Relative | Confidence
–––––––––––––––––––––
1 | 753 | 86 | 3

All Tracks
Filename : /Users/alekhno/Desktop/Periods/Haydn - Symphonies (Roy Goodman)/Symphonies 93-95/Haydnпјљ Symphonies 93-95.flac
CRC32 hash : 9546D6C8
CRC32 hash (skip zero) : C7BC0D24

Track 01
CRC32 hash : 44B93225
CRC32 hash (skip zero) : 58E1FCFF
AccurateRip signature : 746DB48B
->Accurately ripped! (confidence 3)
(matched with the different offset correction value;
calculated using an additional offset of 86;
the signature after correction is: 3731F9DE)

Track 02
CRC32 hash : B1B5530F
CRC32 hash (skip zero) : AB5BB242
AccurateRip signature : F9375810
->Accurately ripped! (confidence 3)
(matched with the different offset correction value;
calculated using an additional offset of 86;
the signature after correction is: DF4F30B5)

Track 03
CRC32 hash : 0BFE0064
CRC32 hash (skip zero) : E54DF28F
AccurateRip signature : D84BFC20
->Accurately ripped! (confidence 3)
(matched with the different offset correction value;
calculated using an additional offset of 86;
the signature after correction is: F4009B1E)

Track 04
CRC32 hash : 2CF69FC4
CRC32 hash (skip zero) : 1AC4DA5C
AccurateRip signature : 7C4F02B5
->Accurately ripped! (confidence 3)
(matched with the different offset correction value;
calculated using an additional offset of 86;
the signature after correction is: 913B9728)

Track 05
CRC32 hash : 8D362F96
CRC32 hash (skip zero) : B8BB73BE
AccurateRip signature : CE2C015F
->Accurately ripped! (confidence 3)
(matched with the different offset correction value;
calculated using an additional offset of 86;
the signature after correction is: 350084D3)

Track 06
CRC32 hash : E4787CDF
CRC32 hash (skip zero) : 9E2DB4B6
AccurateRip signature : 7B61A393
->Accurately ripped! (confidence 3)
(matched with the different offset correction value;
calculated using an additional offset of 86;
the signature after correction is: 91ADA57F)

Track 07
CRC32 hash : EC1FCFBE
CRC32 hash (skip zero) : BAEAE825
AccurateRip signature : 6B765823
->Accurately ripped! (confidence 3)
(matched with the different offset correction value;
calculated using an additional offset of 86;
the signature after correction is: 492D069F)

Track 08
CRC32 hash : 30AB9226
CRC32 hash (skip zero) : 6C9D95AA
AccurateRip signature : 01D29BDA
->Accurately ripped! (confidence 3)
(matched with the different offset correction value;
calculated using an additional offset of 86;
the signature after correction is: D9276B65)

Track 09
CRC32 hash : 15A06AA0
CRC32 hash (skip zero) : 0BA3D796
AccurateRip signature : CB031053
->Accurately ripped! (confidence 3)
(matched with the different offset correction value;
calculated using an additional offset of 86;
the signature after correction is: 5A0E996C)

Track 10
CRC32 hash : 4BD1BB22
CRC32 hash (skip zero) : 712B0CEA
AccurateRip signature : 49D32C97
->Accurately ripped! (confidence 3)
(matched with the different offset correction value;
calculated using an additional offset of 86;
the signature after correction is: 17ECAAEB)

Track 11
CRC32 hash : 5DD08428
CRC32 hash (skip zero) : 7608E9E6
AccurateRip signature : 92A4394F
->Accurately ripped! (confidence 3)
(matched with the different offset correction value;
calculated using an additional offset of 86;
the signature after correction is: A24A22B7)

Track 12
CRC32 hash : BC1A9A0B
CRC32 hash (skip zero) : 86C4242C
AccurateRip signature : 484C8DB8
->Rip may not be accurate.

End of status report


Label: Hyperion UK
CDH55126



















PLEASE NO MIRRORS