Subcategories

Joshua Rifkin - Scott Joplin: Piano Rags (1987)

Posted By: delpotro
Joshua Rifkin - Scott Joplin: Piano Rags (1987)

Joshua Rifkin - Scott Joplin: Piano Rags (1987)
EAC Rip | FLAC (tracks+log+.cue) | 01:11:16 | 245 Mb
Classical, Piano, Ragtime | Label: Elektra, Asylum, Nonesuch Records, WEA International

Scott Joplin: Piano Rags is a 1970 ragtime piano album, consisting of compositions by Scott Joplin played by Joshua Rifkin, on the Nonesuch Records label. The original album's cover states the name as Piano Rags by Scott Joplin, as contrasting the album's spine. The record is considered to have been the first to reintroduce the music of pianist and composer Joplin in the early 1970s. It was Nonesuch Records' first million-selling album.

Track Nos. 1-7 and 17 recorded September 1970; Nos. 8-12 recorded January 1972; Nos. 13-16 recorded September 1974 at Rutgers Presbyterian Church, New York.

Tracks ordered by the years when the works were composed:
1899: [1]
1902: [8]
1903: [2], [13]
1904: [14]
1905: [9]
1906: [3]
1907: [4]
1908: [5], [12]
1909: [7], [10], [11], [15]
1910: [16]
1912 [6]
1914: [17]

Tracklist:
1 Maple Leaf Rag 3:13
2 The Entertainer - A Ragtime Two-Step 4:58
3 The Ragtime Dance 3:13
4 Gladiolus Rag 4:24
5 Fig Leaf Rag 4:36
6 Scott Joplin's New Rag 3:07
7 Euphoric Sounds - A Syncopated Novelty 3:53
8 Elite Syncopations 2:56
9 Bethena - A Concert Waltz 5:16
10 Paragon Rag 3:45
11 Solace - A Mexican Serenade 6:40
12 Pine Apple Rag 3:26
13 Weeping Willow - A Ragtime Two-Step 4:19
14 The Cascades - A Rag 3:03
15 Country Club - Ragtime Two-Step 4:19
16 Stoptime Rag 2:52
17 Magnetic Rag - Syncopations Classiques 5:11

Exact Audio Copy V1.0 beta 2 from 29. April 2011

EAC extraction logfile from 24. April 2013, 14:05

Joshua Rifkin / Scott Joplin Piano Rags

Used drive : HL-DT-STDVDRAM GH15F Adapter: 1 ID: 0

Read mode : Secure
Utilize accurate stream : Yes
Defeat audio cache : Yes
Make use of C2 pointers : No

Read offset correction : 667
Overread into Lead-In and Lead-Out : No
Fill up missing offset samples with silence : Yes
Delete leading and trailing silent blocks : No
Null samples used in CRC calculations : Yes
Used interface : Native Win32 interface for Win NT & 2000
Gap handling : Appended to previous track

Used output format : Internal WAV Routines
Sample format : 44.100 Hz; 16 Bit; Stereo


TOC of the extracted CD

Track | Start | Length | Start sector | End sector
––––––––––––––––––––––––––––-
1 | 0:00.33 | 3:20.07 | 33 | 15039
2 | 3:20.40 | 5:04.68 | 15040 | 37907
3 | 8:25.33 | 3:18.15 | 37908 | 52772
4 | 11:43.48 | 4:29.72 | 52773 | 73019
5 | 16:13.45 | 4:42.08 | 73020 | 94177
6 | 20:55.53 | 3:11.70 | 94178 | 108572
7 | 24:07.48 | 3:58.15 | 108573 | 126437
8 | 28:05.63 | 3:02.05 | 126438 | 140092
9 | 31:07.68 | 5:20.15 | 140093 | 164107
10 | 36:28.08 | 3:49.40 | 164108 | 181322
11 | 40:17.48 | 6:45.50 | 181323 | 211747
12 | 47:03.23 | 3:30.40 | 211748 | 227537
13 | 50:33.63 | 4:24.05 | 227538 | 247342
14 | 54:57.68 | 3:09.42 | 247343 | 261559
15 | 58:07.35 | 4:58.33 | 261560 | 283942
16 | 63:05.68 | 2:56.22 | 283943 | 297164
17 | 66:02.15 | 5:14.28 | 297165 | 320742


Track 1

Filename J:\FLAC\01 - Maple Leaf Rag.wav

Pre-gap length 0:00:02.33

Peak level 55.7 %
Extraction speed 2.0 X
Track quality 100.0 %
Test CRC 59F060A7
Copy CRC 59F060A7
Accurately ripped (confidence 14) [541585C6] (AR v1)
Copy OK

Track 2

Filename J:\FLAC\02 - The Entertainer - A Ragtime Two-Step.wav

Pre-gap length 0:00:03.70

Peak level 33.3 %
Extraction speed 2.3 X
Track quality 100.0 %
Test CRC A7812DDD
Copy CRC A7812DDD
Accurately ripped (confidence 15) [A1D53DA0] (AR v1)
Copy OK

Track 3

Filename J:\FLAC\03 - The Ragtime Dance.wav

Pre-gap length 0:00:01.50

Peak level 59.5 %
Extraction speed 2.0 X
Track quality 99.9 %
Test CRC 1550563A
Copy CRC 1550563A
Accurately ripped (confidence 14) [AA4F7DF2] (AR v1)
Copy OK

Track 4

Filename J:\FLAC\04 - Gladiolus Rag.wav

Pre-gap length 0:00:01.63

Peak level 56.7 %
Extraction speed 2.7 X
Track quality 100.0 %
Test CRC 49F1DE63
Copy CRC 49F1DE63
Accurately ripped (confidence 14) [D57A84C5] (AR v1)
Copy OK

Track 5

Filename J:\FLAC\05 - Fig Leaf Rag.wav

Pre-gap length 0:00:02.60

Peak level 46.7 %
Extraction speed 2.8 X
Track quality 100.0 %
Test CRC 9A8FB950
Copy CRC 9A8FB950
Accurately ripped (confidence 12) [B065EA2B] (AR v1)
Copy OK

Track 6

Filename J:\FLAC\06 - Scott Joplin's New Rag.wav

Pre-gap length 0:00:00.68

Peak level 52.6 %
Extraction speed 2.5 X
Track quality 100.0 %
Test CRC 07C4914F
Copy CRC 07C4914F
Accurately ripped (confidence 12) [8DD501A4] (AR v1)
Copy OK

Track 7

Filename J:\FLAC\07 - Euphonic Sounds - A Syncopated Novelty.wav

Pre-gap length 0:00:02.38

Peak level 41.2 %
Extraction speed 2.9 X
Track quality 100.0 %
Test CRC EAB4288A
Copy CRC EAB4288A
Accurately ripped (confidence 14) [835CD188] (AR v1)
Copy OK

Track 8

Filename J:\FLAC\08 - Elite Syncopations.wav

Pre-gap length 0:00:01.43

Peak level 57.4 %
Extraction speed 3.0 X
Track quality 100.0 %
Test CRC 682896C5
Copy CRC 682896C5
Accurately ripped (confidence 14) [FD3A9D52] (AR v1)
Copy OK

Track 9

Filename J:\FLAC\09 - Bethena - A Concert Waltz.wav

Pre-gap length 0:00:02.30

Peak level 55.6 %
Extraction speed 3.4 X
Track quality 100.0 %
Test CRC D9D61E13
Copy CRC D9D61E13
Accurately ripped (confidence 14) [4D5B2507] (AR v1)
Copy OK

Track 10

Filename J:\FLAC\10 - Paragon Rag.wav

Pre-gap length 0:00:01.18

Peak level 55.4 %
Extraction speed 3.0 X
Track quality 100.0 %
Test CRC B58308FB
Copy CRC B58308FB
Accurately ripped (confidence 14) [5712B105] (AR v1)
Copy OK

Track 11

Filename J:\FLAC\11 - Solace - A Mexican Serenade.wav

Pre-gap length 0:00:01.33

Peak level 40.8 %
Extraction speed 3.4 X
Track quality 99.9 %
Test CRC A0CEE163
Copy CRC A0CEE163
Accurately ripped (confidence 13) [1D7D80BD] (AR v1)
Copy OK

Track 12

Filename J:\FLAC\12 - Pine Apple Rag.wav

Pre-gap length 0:00:01.25

Peak level 59.4 %
Extraction speed 3.5 X
Track quality 100.0 %
Test CRC 1FE21D13
Copy CRC 1FE21D13
Accurately ripped (confidence 12) [3E3D9888] (AR v1)
Copy OK

Track 13

Filename J:\FLAC\13 - Weeping Willow - A Ragtime Two-Step.wav

Pre-gap length 0:00:02.73

Peak level 47.7 %
Extraction speed 3.8 X
Track quality 100.0 %
Test CRC E64BF5E4
Copy CRC E64BF5E4
Accurately ripped (confidence 12) [EB949FBC] (AR v1)
Copy OK

Track 14

Filename J:\FLAC\14 - The Cascades - A Rag.wav

Pre-gap length 0:00:03.25

Peak level 71.8 %
Extraction speed 3.2 X
Track quality 99.9 %
Test CRC 656133BC
Copy CRC 656133BC
Accurately ripped (confidence 12) [A33BBADE] (AR v1)
Copy OK

Track 15

Filename J:\FLAC\15 - Country Club - Ragtime Two-Step.wav

Pre-gap length 0:00:03.32

Peak level 46.5 %
Extraction speed 3.4 X
Track quality 99.9 %
Test CRC 8B3222FD
Copy CRC 8B3222FD
Accurately ripped (confidence 12) [0D81B1F9] (AR v1)
Copy OK

Track 16

Filename J:\FLAC\16 - Stoptime Rag.wav

Pre-gap length 0:00:01.73

Peak level 58.3 %
Extraction speed 3.4 X
Track quality 99.9 %
Test CRC 4814A5FF
Copy CRC 4814A5FF
Accurately ripped (confidence 12) [C6EEE907] (AR v1)
Copy OK

Track 17

Filename J:\FLAC\17 - Magnetic Rag - Syncopations Classiques.wav

Pre-gap length 0:00:02.27

Peak level 59.7 %
Extraction speed 4.4 X
Track quality 100.0 %
Test CRC 85A54437
Copy CRC 85A54437
Accurately ripped (confidence 12) [18478B74] (AR v1)
Copy OK


All tracks accurately ripped

No errors occurred

End of status report

==== Log checksum 067F6A418336FBA613F59B000DFDC4F7A39B44E5075A25B62CE0E4A67C62F37A ====

Thanks to the Original ripper leontrotsky !