Subcategories

Judy Collins - Trust Your Heart (1987)

Posted By: firepower
Judy Collins - Trust Your Heart (1987)

Judy Collins - Trust Your Heart (1987)
EAC, FLAC image, CUE+LOG - 217 MB | MP3 320 CBR - 87 MB
Complete 600dpi Art, JPG - 47 MB or TIF - 147 MB
Soft Rock | 1987 Gold Castle GD-1002 | 5% recovery record | Source: My CD

As she explains in her concurrently published autobiography, also called Trust Your Heart, Judy Collins concluded her nearly 24-year contract with Elektra Records on December 31, 1984. Her next recording affiliation was a one-off venture with the British Telstar Records label, which had her make an album of inspirational songs for the 1985 holiday season, named after her re-recording of one of her hits, Amazing Grace. That LP was released only in the U.K., so when Collins next signed to the startup Gold Castle Records label in the U.S., she opted to employ some of its tracks, along with a few new recordings, for this album. Amazing Grace had 16 songs on it, and Collins has selected seven of those, to which she has added two of her own compositions, "Trust Your Heart" and "The Life You Dream," plus her cover of the song "Moonfall" from the 1985 Broadway musical The Mystery of Edwin Drood. The effect is to assemble a fairly typical Judy Collins album, which Amazing Grace was not. Much of the earlier album's spiritual/religious quality remains, however, though Collins makes that more ecumenical and less specifically Christian in the religious references in "The Life You Dream." And, even for an artist not known to rock out very much, this is one of her softest collections, even when she's not being backed by the United Kingdom Symphony Orchestra and the Trinity Boys Choir, as she is on the British hymn "Jerusalem." Her own songs are characteristic piano ballads, and "Moonfall" seems intended to be the "Send in the Clowns" or "Memory" of this set, though the song does not rise to that quality. Except for the three new tracks, this is not an album on which Collins is discovering or introducing otherwise unfamiliar material, as she typically does; instead, she is applying her lovely voice to good songs often known in renditions by others, such as Bette Midler's "The Rose" or Cat Stevens' "Morning Has Broken." Thus, she comes off more as a conventional interpretive pop singer than usual.
Judy Collins - Trust Your Heart (1987)

Tracklist:

01 - Trust Your Heart
02 - Amazing Grace
03 - Jerusalem
04 - Day By Day
05 - The Life You Dream
06 - The Rose
07 - Moonfall
08 - Morning Has Broken
09 - When A Child Is Born
10 - When You Wish Upon A Star
Judy Collins - Trust Your Heart (1987)

Judy Collins - Trust Your Heart (1987)

Exact Audio Copy V1.0 beta 2 from 29. April 2011

EAC extraction logfile from 4. June 2016, 15:09

Judy Collins / Trust Your Heart

Used drive : LITE-ON LTR-52327S Adapter: 0 ID: 1

Read mode : Secure
Utilize accurate stream : Yes
Defeat audio cache : Yes
Make use of C2 pointers : No

Read offset correction : 6
Overread into Lead-In and Lead-Out : No
Fill up missing offset samples with silence : Yes
Delete leading and trailing silent blocks : No
Null samples used in CRC calculations : Yes
Used interface : Native Win32 interface for Win NT & 2000

Used output format : User Defined Encoder
Selected bitrate : 768 kBit/s
Quality : High
Add ID3 tag : No
Command line compressor : C:\Program Files (x86)\EAC 1.0 beta 2\Exact Audio Copy\Flac\flac.exe
Additional command line options : -0 -V -T "ARTIST=%artist%" -T "TITLE=%title%" -T "ALBUM=%albumtitle%" -T "DATE=%year%" -T "TRACKNUMBER=%tracknr%" -T "GENRE=%genre%" -T "COMMENT=ExactAudioCopy v1.0b2 rip by firepower at Avaxhome" -T "BAND=%albuminterpret%"


TOC of the extracted CD

Track | Start | Length | Start sector | End sector
––––––––––––––––––––––––––––-
1 | 0:00.00 | 3:25.02 | 0 | 15376
2 | 3:25.02 | 3:53.00 | 15377 | 32851
3 | 7:18.02 | 2:22.13 | 32852 | 43514
4 | 9:40.15 | 3:14.12 | 43515 | 58076
5 | 12:54.27 | 5:51.70 | 58077 | 84471
6 | 18:46.22 | 5:07.30 | 84472 | 107526
7 | 23:53.52 | 3:34.00 | 107527 | 123576
8 | 27:27.52 | 2:49.60 | 123577 | 136311
9 | 30:17.37 | 3:25.10 | 136312 | 151696
10 | 33:42.47 | 2:44.58 | 151697 | 164054


Range status and errors

Selected range

Filename J:\Avaxhome\firepower\Judy Collins - Trust Your Heart.wav

Peak level 99.3 %
Extraction speed 5.8 X
Range quality 100.0 %
Test CRC 5763E407
Copy CRC 5763E407
Copy OK

No errors occurred


AccurateRip summary

Track 1 accurately ripped (confidence 2) [304BC963] (AR v1)
Track 2 accurately ripped (confidence 2) [028B00D3] (AR v1)
Track 3 accurately ripped (confidence 2) [C1438135] (AR v1)
Track 4 accurately ripped (confidence 2) [1BFC1F2E] (AR v1)
Track 5 accurately ripped (confidence 2) [A844EBE2] (AR v1)
Track 6 accurately ripped (confidence 2) [351F6711] (AR v1)
Track 7 accurately ripped (confidence 2) [9C4B6CEF] (AR v1)
Track 8 accurately ripped (confidence 2) [09029793] (AR v1)
Track 9 accurately ripped (confidence 2) [AD1BED94] (AR v1)
Track 10 accurately ripped (confidence 2) [2DDE8633] (AR v1)

All tracks accurately ripped

End of status report

==== Log checksum 875D21B954EA85F8A5F21BF877D513749ECD05B3F12B46A09AB7267EF4F54A94 ====

Notes:
USA edition
This issue has a folded front insert, no booklet.
There is no artwork included in the music archives.
JPG and TIF are available as separate archives.
JPG setting is 100. FLAC is level 0.
Scans are 600dpi using a Mustek A3 1200S scanner.
All files are fully tagged.
5% recovery record
-NF-

I do not get comment notifications with Disqus like I did with the old format, therefore, I am not likely to see comments because I have hundreds of posts and will not open each one to see if there is a comment. Please PM me instead.

Password = avaxhome