Subcategories

Judy Collins - Wildflowers (1967) [1987]

Posted By: firepower
Judy Collins - Wildflowers (1967) [1987]

Judy Collins - Wildflowers (1967) [1987]
EAC, FLAC image, CUE+LOG - 188 MB | MP3 320 CBR - 86 MB
Complete 600dpi Art, JPG - 45 MB or TIF - 132 MB
Soft Rock | 1987 Elektra 74012-2 | 5% recovery record | Source: My CD

Soothing. Unique. Natural. These are clear adjectives used best when describing the style and grace of Judy Collins and her album Wildflowers. Her blend of folk and meditative music paints a tapestry of soft, nurturing colors that transcends the mind of the listener and seeks one's soul. Much of the material feels uplifting and full of spirit, or even spiritual to some degree. Yet other parts of the record can be viewed and felt as sad and morose, which gives the record some dexterity and variety among its ability to appeal toward contrasting moods. Collins makes a well-earned statement in her original tunes "Since You Asked," "Sky Fell," and "Albatross," that deep, meditative, and subtle can be effective within the realms of music as an art form. She is certainly artistic with her approach, staying away from the clichéd folk and pop music that flooded much of the '60s radio-friendly airwaves. Collins also includes her favorite melodies from the songbooks of Joni Mitchell and Leonard Cohen. This can benefit one as a pleasant listen, easy to sooth the mind and body, and release the burdens of everyday stress in society.
Judy Collins - Wildflowers (1967) [1987]

Tracklist:

01 - Michael From Mountains
02 - Since You Asked
03 - Sisters Of Mercy
04 - Priests
05 - Lasso! Di Donna
06 - Both Sides Now
07 - La Chanson Des Vieux Amants
08 - Sky Fell
09 - Albatross
10 - Hey, That's No Way To Say Goodbye
Judy Collins - Wildflowers (1967) [1987]

Judy Collins - Wildflowers (1967) [1987]

Exact Audio Copy V1.0 beta 2 from 29. April 2011

EAC extraction logfile from 4. June 2016, 15:26

Judy Collins / Wildflowers

Used drive : LITE-ON LTR-52327S Adapter: 0 ID: 1

Read mode : Secure
Utilize accurate stream : Yes
Defeat audio cache : Yes
Make use of C2 pointers : No

Read offset correction : 6
Overread into Lead-In and Lead-Out : No
Fill up missing offset samples with silence : Yes
Delete leading and trailing silent blocks : No
Null samples used in CRC calculations : Yes
Used interface : Native Win32 interface for Win NT & 2000

Used output format : User Defined Encoder
Selected bitrate : 768 kBit/s
Quality : High
Add ID3 tag : No
Command line compressor : C:\Program Files (x86)\EAC 1.0 beta 2\Exact Audio Copy\Flac\flac.exe
Additional command line options : -0 -V -T "ARTIST=%artist%" -T "TITLE=%title%" -T "ALBUM=%albumtitle%" -T "DATE=%year%" -T "TRACKNUMBER=%tracknr%" -T "GENRE=%genre%" -T "COMMENT=ExactAudioCopy v1.0b2 rip by firepower at Avaxhome" -T "BAND=%albuminterpret%"


TOC of the extracted CD

Track | Start | Length | Start sector | End sector
––––––––––––––––––––––––––––-
1 | 0:00.32 | 3:11.58 | 32 | 14414
2 | 3:12.15 | 2:35.22 | 14415 | 26061
3 | 5:47.37 | 2:33.43 | 26062 | 37579
4 | 8:21.05 | 4:57.25 | 37580 | 59879
5 | 13:18.30 | 4:37.17 | 59880 | 80671
6 | 17:55.47 | 3:16.43 | 80672 | 95414
7 | 21:12.15 | 4:40.12 | 95415 | 116426
8 | 25:52.27 | 1:49.50 | 116427 | 124651
9 | 27:42.02 | 4:52.68 | 124652 | 146619
10 | 32:34.70 | 3:32.62 | 146620 | 162581


Range status and errors

Selected range

Filename J:\Avaxhome\firepower\Judy Collins - Wildflowers.wav

Peak level 88.0 %
Extraction speed 5.3 X
Range quality 100.0 %
Test CRC 9B6E447B
Copy CRC 9B6E447B
Copy OK

No errors occurred


AccurateRip summary

Track 1 accurately ripped (confidence 7) [1FFF1E65] (AR v2)
Track 2 accurately ripped (confidence 6) [5396147D] (AR v2)
Track 3 accurately ripped (confidence 7) [FCFB1760] (AR v2)
Track 4 accurately ripped (confidence 6) [07ED38DC] (AR v2)
Track 5 accurately ripped (confidence 7) [7D082ED6] (AR v2)
Track 6 accurately ripped (confidence 6) [4822C152] (AR v2)
Track 7 accurately ripped (confidence 6) [0FC5E212] (AR v2)
Track 8 accurately ripped (confidence 7) [254DF68B] (AR v2)
Track 9 accurately ripped (confidence 5) [D9DF774C] (AR v2)
Track 10 accurately ripped (confidence 6) [08B9D5ED] (AR v2)

All tracks accurately ripped

End of status report

==== Log checksum 7FD5E9DEF6F545FB84660C762FF501D6EAE9F705EC0AF9312E513E4929F4B82D ====

Notes:
USA edition
I believe this is the first press CD issue.
This issue has a folded front insert, no booklet.
There is no artwork included in the music archives.
JPG and TIF are available as separate archives.
JPG setting is 100. FLAC is level 0.
Scans are 600dpi using a Mustek A3 1200S scanner.
All files are fully tagged.
5% recovery record
-NF-

I do not get comment notifications with Disqus like I did with the old format, therefore, I am not likely to see comments because I have hundreds of posts and will not open each one to see if there is a comment. Please PM me instead.

Password = avaxhome