Subcategories

Katherine Jenkins - Guiding Light (2018)

Posted By: delpotro
Katherine Jenkins - Guiding Light (2018)

Katherine Jenkins - Guiding Light (2018)
EAC Rip | FLAC (tracks+log+.cue) | 00:56:00 | 312 Mb
Classical, Vocal | Label: Decca Records

Songs of Inspiration, Hope and Strength A collection of songs in which to find meaning and inspiration. Includes the single Jealous of the Angels, Josh Groban’s To Where you Are, hymns Make Me A Channel of your Peace and Morning Has Broken (with Bryn Terfel). Also includes a moving cover of Stormzy’s Blinded By Your Grace which features Katherine’s Daughter Aaliyah and The Greatest Showman’s Never Enough.

For Jenkins, the new album represents the culmination of a deeply emotional journey which began when her beloved father, Selwyn, died and she found a new path when she became a mother. It is an album which speaks of life, hope, acceptance and a universal spirituality. For Jenkins, there is a sense of a greater purpose to her performance.

The Welsh mezzo-soprano says, “I have a life now I don’t think I ever expected to have. I am very happy, very blessed and I feel incredibly grateful. I feel whole new layers of emotion which have really taken me by surprise and made me feel like I have found myself, found my true voice. My voice has changed. This album is the most intimate album I have ever made. It’s a mindful collection of songs. I’m not trying to prove anything, I’m not trying to show how many notes I can hit, I just want to take people to a place of emotion and reflection – to touch hearts and souls.”
Tracklist:
1. Katherine Jenkins – Homeward Bound (04:15)
2. Katherine Jenkins – Jealous of the Angels (03:48)
3. Katherine Jenkins – A Gaelic Blessing (01:52)
4. Katherine Jenkins & Bryn Terfel – Morning Has Broken (feat. Bryn Terfel) (03:28)
5. Katherine Jenkins – Dros Gymru'n Gwlad (Finlandia) (03:40)
6. Katherine Jenkins – Never Enough (03:21)
7. Katherine Jenkins – Blinded by Your Grace (03:49)
8. Katherine Jenkins – To Where You Are (03:46)
9. Katherine Jenkins – Make Me a Channel of Your Peace (03:39)
10. Katherine Jenkins – Come Thou Fount of Every Blessing (03:58)
11. Katherine Jenkins – Eternal Father (03:47)
12. Katherine Jenkins – Nearer My God to Thee (05:14)
13. Katherine Jenkins – Xander's Song (03:26)
14. Katherine Jenkins – Peace in the Valley (03:47)
15. Katherine Jenkins – Morning Has Broken (03:29)

Exact Audio Copy V1.3 from 2. September 2016

EAC extraction logfile from 30. March 2019, 18:23

Katherine Jenkins / Guiding Light

Used drive : MATSHITADVD-RAM UJ8E2 Adapter: 1 ID: 0

Read mode : Secure
Utilize accurate stream : Yes
Defeat audio cache : Yes
Make use of C2 pointers : No

Read offset correction : 103
Overread into Lead-In and Lead-Out : No
Fill up missing offset samples with silence : Yes
Delete leading and trailing silent blocks : No
Null samples used in CRC calculations : Yes
Used interface : Native Win32 interface for Win NT & 2000
Gap handling : Appended to previous track

Used output format : User Defined Encoder
Selected bitrate : 1024 kBit/s
Quality : High
Add ID3 tag : No
Command line compressor : C:\Program Files (x86)\Exact Audio Copy\Flac\flac.exe
Additional command line options : -8 -V -T "ARTIST=%artist%" -T "TITLE=%title%" -T "ALBUM=%albumtitle%" -T "DATE=%year%" -T "TRACKNUMBER=%tracknr%" -T "GENRE=%genre%" -T "PERFORMER=%albuminterpret%" -T "COMPOSER=%composer%" %haslyrics%–tag-from-file=LYRICS="%lyricsfile%"%haslyrics% -T "ALBUMARTIST=%albumartist%" -T "DISCNUMBER=%cdnumber%" -T "TOTALDISCS=%totalcds%" -T "TOTALTRACKS=%numtracks%" -T "COMMENT=%comment%" %source% -o %dest%


TOC of the extracted CD

Track | Start | Length | Start sector | End sector
––––––––––––––––––––––––––––-
1 | 0:00.00 | 4:18.30 | 0 | 19379
2 | 4:18.30 | 3:51.04 | 19380 | 36708
3 | 8:09.34 | 1:54.15 | 36709 | 45273
4 | 10:03.49 | 3:31.37 | 45274 | 61135
5 | 13:35.11 | 3:42.52 | 61136 | 77837
6 | 17:17.63 | 3:23.73 | 77838 | 93135
7 | 20:41.61 | 3:52.09 | 93136 | 110544
8 | 24:33.70 | 3:49.23 | 110545 | 127742
9 | 28:23.18 | 3:41.24 | 127743 | 144341
10 | 32:04.42 | 4:00.60 | 144342 | 162401
11 | 36:05.27 | 3:50.04 | 162402 | 179655
12 | 39:55.31 | 5:16.72 | 179656 | 203427
13 | 45:12.28 | 3:28.24 | 203428 | 219051
14 | 48:40.52 | 3:50.42 | 219052 | 236343
15 | 52:31.19 | 3:29.53 | 236344 | 252071


Track 1

Filename C:\EAC Rips\Katherine Jenkins (2018) Guiding Light [FLAC] {B0029291-02}\ 01 - 1. Homeward Bound.wav

Pre-gap length 0:00:02.00

Peak level 95.3 %
Extraction speed 1.4 X
Track quality 100.0 %
Test CRC 485304BE
Copy CRC 485304BE
Accurately ripped (confidence 4) [DACCF198] (AR v2)
Copy OK

Track 2

Filename C:\EAC Rips\Katherine Jenkins (2018) Guiding Light [FLAC] {B0029291-02}\ 02 - 2. Jealous of the Angels.wav

Pre-gap length 0:00:02.53

Peak level 98.0 %
Extraction speed 1.4 X
Track quality 99.9 %
Test CRC ECA71170
Copy CRC ECA71170
Accurately ripped (confidence 4) [3FD1D4A2] (AR v2)
Copy OK

Track 3

Filename C:\EAC Rips\Katherine Jenkins (2018) Guiding Light [FLAC] {B0029291-02}\ 03 - 3. A Gaelic Blessing.wav

Pre-gap length 0:00:02.24

Peak level 81.5 %
Extraction speed 1.2 X
Track quality 99.9 %
Test CRC FA304C1C
Copy CRC FA304C1C
Accurately ripped (confidence 4) [A6C3CA1E] (AR v2)
Copy OK

Track 4

Filename C:\EAC Rips\Katherine Jenkins (2018) Guiding Light [FLAC] {B0029291-02}\ 04 - 4. Morning Has Broken (feat. Bryn Terfel).wav

Pre-gap length 0:00:01.41

Peak level 85.1 %
Extraction speed 1.5 X
Track quality 99.9 %
Test CRC CD468682
Copy CRC CD468682
Accurately ripped (confidence 4) [7A6680FE] (AR v2)
Copy OK

Track 5

Filename C:\EAC Rips\Katherine Jenkins (2018) Guiding Light [FLAC] {B0029291-02}\ 05 - 5. Dros Gymru'n Gwlad (Finlandia).wav

Pre-gap length 0:00:02.52

Peak level 84.6 %
Extraction speed 1.9 X
Track quality 100.0 %
Test CRC 372F2B4F
Copy CRC 372F2B4F
Accurately ripped (confidence 4) [B155C527] (AR v2)
Copy OK

Track 6

Filename C:\EAC Rips\Katherine Jenkins (2018) Guiding Light [FLAC] {B0029291-02}\ 06 - 6. Never Enough.wav

Pre-gap length 0:00:02.41

Peak level 78.7 %
Extraction speed 2.0 X
Track quality 100.0 %
Test CRC 1B1BA4C5
Copy CRC 1B1BA4C5
Accurately ripped (confidence 4) [9941424B] (AR v2)
Copy OK

Track 7

Filename C:\EAC Rips\Katherine Jenkins (2018) Guiding Light [FLAC] {B0029291-02}\ 07 - 7. Blinded By Your Grace.wav

Pre-gap length 0:00:02.22

Peak level 82.1 %
Extraction speed 2.1 X
Track quality 100.0 %
Test CRC 8DB5BF14
Copy CRC 8DB5BF14
Accurately ripped (confidence 4) [CA7E09F2] (AR v2)
Copy OK

Track 8

Filename C:\EAC Rips\Katherine Jenkins (2018) Guiding Light [FLAC] {B0029291-02}\ 08 - 8. To Where You Are.wav

Pre-gap length 0:00:02.17

Peak level 85.2 %
Extraction speed 2.2 X
Track quality 100.0 %
Test CRC 68D504D2
Copy CRC 68D504D2
Accurately ripped (confidence 4) [27C00F49] (AR v2)
Copy OK

Track 9

Filename C:\EAC Rips\Katherine Jenkins (2018) Guiding Light [FLAC] {B0029291-02}\ 09 - 9. Make Me A Channel Of Your Peace.wav

Pre-gap length 0:00:02.48

Peak level 85.2 %
Extraction speed 2.3 X
Track quality 100.0 %
Test CRC CD5162E0
Copy CRC CD5162E0
Accurately ripped (confidence 4) [F47E3E12] (AR v2)
Copy OK

Track 10

Filename C:\EAC Rips\Katherine Jenkins (2018) Guiding Light [FLAC] {B0029291-02}\ 10 - 10. Come Thou Fount of Every Blessing.wav

Pre-gap length 0:00:01.93

Peak level 75.8 %
Extraction speed 2.4 X
Track quality 100.0 %
Test CRC 264319F0
Copy CRC 264319F0
Accurately ripped (confidence 4) [F189B045] (AR v2)
Copy OK

Track 11

Filename C:\EAC Rips\Katherine Jenkins (2018) Guiding Light [FLAC] {B0029291-02}\ 11 - 11. Eternal Father.wav

Pre-gap length 0:00:02.01

Peak level 76.1 %
Extraction speed 2.2 X
Track quality 99.9 %
Test CRC 3E2E3E14
Copy CRC 3E2E3E14
Accurately ripped (confidence 4) [C4B6F361] (AR v2)
Copy OK

Track 12

Filename C:\EAC Rips\Katherine Jenkins (2018) Guiding Light [FLAC] {B0029291-02}\ 12 - 12. Nearer My God To Thee.wav

Pre-gap length 0:00:02.17

Peak level 85.4 %
Extraction speed 2.7 X
Track quality 100.0 %
Test CRC 51D48B2E
Copy CRC 51D48B2E
Accurately ripped (confidence 4) [8DE4BB7A] (AR v2)
Copy OK

Track 13

Filename C:\EAC Rips\Katherine Jenkins (2018) Guiding Light [FLAC] {B0029291-02}\ 13 - 13. Xander's Song.wav

Pre-gap length 0:00:02.10

Peak level 93.3 %
Extraction speed 2.6 X
Track quality 100.0 %
Test CRC 6A6F0614
Copy CRC 6A6F0614
Accurately ripped (confidence 4) [95DE06CE] (AR v2)
Copy OK

Track 14

Filename C:\EAC Rips\Katherine Jenkins (2018) Guiding Light [FLAC] {B0029291-02}\ 14 - 14. Peace in the Valley.wav

Pre-gap length 0:00:01.94

Peak level 98.0 %
Extraction speed 2.7 X
Track quality 100.0 %
Test CRC 53BBA732
Copy CRC 53BBA732
Accurately ripped (confidence 4) [B8A53B83] (AR v2)
Copy OK

Track 15

Filename C:\EAC Rips\Katherine Jenkins (2018) Guiding Light [FLAC] {B0029291-02}\ 15 - 15. Morning has Broken (Solo Version).wav

Pre-gap length 0:00:02.73

Peak level 86.9 %
Extraction speed 2.8 X
Track quality 100.0 %
Test CRC 87A4FD14
Copy CRC 87A4FD14
Accurately ripped (confidence 4) [2039792D] (AR v2)
Copy OK


All tracks accurately ripped

No errors occurred

End of status report

–– CUETools DB Plugin V2.1.6

[CTDB TOCID: nerMZFOMuTIO1VjsXQOQUS_CX1E-] found
Submit result: nerMZFOMuTIO1VjsXQOQUS_CX1E- has been confirmed
Track | CTDB Status
1 | (23/23) Accurately ripped
2 | (23/23) Accurately ripped
3 | (23/23) Accurately ripped
4 | (23/23) Accurately ripped
5 | (23/23) Accurately ripped
6 | (23/23) Accurately ripped
7 | (23/23) Accurately ripped
8 | (23/23) Accurately ripped
9 | (23/23) Accurately ripped
10 | (23/23) Accurately ripped
11 | (23/23) Accurately ripped
12 | (23/23) Accurately ripped
13 | (23/23) Accurately ripped
14 | (23/23) Accurately ripped
15 | (23/23) Accurately ripped


==== Log checksum FF87647A01D3A20677831A20AE9CD458844FF81C12ADF91BCD1DEAE00E4682A4 ====

Thanks to the Original ripper Chesco !