Subcategories

Katrine Gislinge, Lapland Chamber Orchestra & John Storgards - Bent Sørensen: Mignon (2017)

Posted By: delpotro
Katrine Gislinge, Lapland Chamber Orchestra & John Storgards - Bent Sørensen: Mignon (2017)

Katrine Gislinge, Lapland Chamber Orchestra & John Storgards - Bent Sørensen: Mignon (2017)
EAC Rip | FLAC (tracks+log+.cue) | Digital booklet | 01:16:06 | 291 Mb
Modern Classical, Chamber Music | Label: Dacapo Records

Bent Sorensen’s piano concerto Mignon- part of his Papillons trilogy- reveals textural beauty and melodic elegance in a language both modernist and sweetly nostalgic. The piece was written for Katrine Gislinge, one of the most significant pianists in Scandinavia, and on this premiere recording she is accompanied by Lapland Chamber Orchestra, conducted by John Storgards. A former student of Per Norgard, Bent Sorensen (b. 1958) is one of the most internationally performed Danish composers. His works have been performed at Carnegie Hall, the BBC Proms, and other notable venues across the world by ensembles like the London Sinfonietta, Ensemble InterContemporain, SWR Sinfonieorchester Baden-Baden und Freiburg, and more. Sorensen is a highly decorated composer, winning the Nordic Council Music Prize in 1996, the ‘International Award’ at British Composer Awards 2011, and was composer-in-residence at Huddersfield Contemporary Music Festival 2011 and Trondheim Chamber Music Festival 2016. Of his previous album, Gramophone wrote: “…all-round excellence and a disc that’s unusually moving in one sitting.”
Tracklist:
01. Mignon (Papillons): I. Andante 5:05
02. Mignon (Papillons): II. Fluente 1:04
03. Mignon (Papillons): III. Moderato cantabile molto espressivo 1:34
04. Mignon (Papillons): IV. Allegretto 3:51
05. Mignon (Papillons): V. — 4:41
06. Mignon (Papillons): VI. Scherzando 2:55
07. Mignon (Papillons): VII. Calmo con delicatezza 4:41
08. Serenissima 5:17
09. Sinful Songs: I. — 8:35
10. Sinful Songs: II. — 7:12
11. The Lady of Shalott 7:30
12. Ständchen: I. — 3:32
13. Ständchen: II. — 4:25
14. Ständchen: III. — 4:03
15. Ständchen: IV. — 1:58
16. Ständchen: V. — 1:51
17. The Weeping White Room 7:42

Exact Audio Copy V1.3 from 2. September 2016

EAC extraction logfile from 27. September 2017, 21:37

Gislinge, Lapland Chamber Orchestra, Storgards / Mignon

Used drive : HL-DT-STDVD-RAM GH22NP21 Adapter: 1 ID: 0

Read mode : Secure
Utilize accurate stream : Yes
Defeat audio cache : Yes
Make use of C2 pointers : No

Read offset correction : 102
Overread into Lead-In and Lead-Out : No
Fill up missing offset samples with silence : Yes
Delete leading and trailing silent blocks : No
Null samples used in CRC calculations : Yes
Used interface : Native Win32 interface for Win NT & 2000
Gap handling : Appended to previous track

Used output format : User Defined Encoder
Selected bitrate : 128 kBit/s
Quality : High
Add ID3 tag : No
Command line compressor : C:\Program Files (x86)\Exact Audio Copy\Flac\flac.exe
Additional command line options : -8 -V -T "ARTIST=%artist%" -T "TITLE=%title%" -T "ALBUM=%albumtitle%" -T "DATE=%year%" -T "TRACKNUMBER=%tracknr%" -T "GENRE=%genre%" -T "PERFORMER=%albuminterpret%" -T "COMPOSER=%composer%" -T "ALBUMARTIST=%albumartist%" -T "DISCNUMBER=%cdnumber%" -T "TOTALDISCS=%totalcds%" -T "TOTALTRACKS=%numtracks%" -T "COMMENT=EAC Secure Mode, Test & Copy, AccurateRip, FLAC -8" %source% -o %dest%


TOC of the extracted CD

Track | Start | Length | Start sector | End sector
––––––––––––––––––––––––––––-
1 | 0:00.00 | 5:05.50 | 0 | 22924
2 | 5:05.50 | 1:04.71 | 22925 | 27795
3 | 6:10.46 | 1:34.57 | 27796 | 34902
4 | 7:45.28 | 3:51.54 | 34903 | 52281
5 | 11:37.07 | 4:41.20 | 52282 | 73376
6 | 16:18.27 | 2:55.44 | 73377 | 86545
7 | 19:13.71 | 4:41.39 | 86546 | 107659
8 | 23:55.35 | 5:17.55 | 107660 | 131489
9 | 29:13.15 | 8:35.19 | 131490 | 170133
10 | 37:48.34 | 7:12.56 | 170134 | 202589
11 | 45:01.15 | 7:30.69 | 202590 | 236408
12 | 52:32.09 | 3:32.37 | 236409 | 252345
13 | 56:04.46 | 4:25.47 | 252346 | 272267
14 | 60:30.18 | 4:03.01 | 272268 | 290493
15 | 64:33.19 | 1:58.54 | 290494 | 299397
16 | 66:31.73 | 1:51.56 | 299398 | 307778
17 | 68:23.54 | 7:42.37 | 307779 | 342465


Track 1

Filename H:\DL\Bent Sorensen - Mignon (2017) [FLAC]\01 - Mignon - Papillons - I. Andante.wav

Pre-gap length 0:00:02.00

Peak level 54.0 %
Extraction speed 1.8 X
Track quality 100.0 %
Test CRC 4B1CEB76
Copy CRC 4B1CEB76
Track not present in AccurateRip database
Copy OK

Track 2

Filename H:\DL\Bent Sorensen - Mignon (2017) [FLAC]\02 - Mignon - Papillons - II. Fluente.wav

Peak level 67.2 %
Extraction speed 1.3 X
Track quality 100.0 %
Test CRC 34B05C54
Copy CRC 34B05C54
Track not present in AccurateRip database
Copy OK

Track 3

Filename H:\DL\Bent Sorensen - Mignon (2017) [FLAC]\03 - Mignon - Papillons - III. Moderato cantabile molto espressivo.wav

Peak level 44.2 %
Extraction speed 1.6 X
Track quality 100.0 %
Test CRC 4CADF192
Copy CRC 4CADF192
Track not present in AccurateRip database
Copy OK

Track 4

Filename H:\DL\Bent Sorensen - Mignon (2017) [FLAC]\04 - Mignon - Papillons - IV. Allegretto.wav

Peak level 88.6 %
Extraction speed 1.8 X
Track quality 99.9 %
Test CRC 45620670
Copy CRC 45620670
Track not present in AccurateRip database
Copy OK

Track 5

Filename H:\DL\Bent Sorensen - Mignon (2017) [FLAC]\05 - Mignon - Papillons - V. -.wav

Peak level 43.3 %
Extraction speed 2.3 X
Track quality 100.0 %
Test CRC CA06D373
Copy CRC CA06D373
Track not present in AccurateRip database
Copy OK

Track 6

Filename H:\DL\Bent Sorensen - Mignon (2017) [FLAC]\06 - Mignon - Papillons - VI. Scherzando.wav

Peak level 98.1 %
Extraction speed 1.9 X
Track quality 99.9 %
Test CRC 76D29633
Copy CRC 76D29633
Track not present in AccurateRip database
Copy OK

Track 7

Filename H:\DL\Bent Sorensen - Mignon (2017) [FLAC]\07 - Mignon - Papillons - VII. Calmo con delicatezza.wav

Peak level 19.5 %
Extraction speed 2.2 X
Track quality 99.9 %
Test CRC FEF82585
Copy CRC FEF82585
Track not present in AccurateRip database
Copy OK

Track 8

Filename H:\DL\Bent Sorensen - Mignon (2017) [FLAC]\08 - Serenissima.wav

Pre-gap length 0:00:07.37

Peak level 78.3 %
Extraction speed 2.4 X
Track quality 99.9 %
Test CRC 4A7EAEFA
Copy CRC 4A7EAEFA
Track not present in AccurateRip database
Copy OK

Track 9

Filename H:\DL\Bent Sorensen - Mignon (2017) [FLAC]\09 - Sinful Songs - I. -.wav

Pre-gap length 0:00:03.68

Peak level 78.3 %
Extraction speed 2.7 X
Track quality 99.9 %
Test CRC A1264AA6
Copy CRC A1264AA6
Track not present in AccurateRip database
Copy OK

Track 10

Filename H:\DL\Bent Sorensen - Mignon (2017) [FLAC]\10 - Sinful Songs - II. -.wav

Peak level 89.5 %
Extraction speed 3.1 X
Track quality 100.0 %
Test CRC 5E281E15
Copy CRC 5E281E15
Track not present in AccurateRip database
Copy OK

Track 11

Filename H:\DL\Bent Sorensen - Mignon (2017) [FLAC]\11 - The Lady of Shalott.wav

Pre-gap length 0:00:04.17

Peak level 22.1 %
Extraction speed 3.4 X
Track quality 100.0 %
Test CRC 34C1C929
Copy CRC 34C1C929
Track not present in AccurateRip database
Copy OK

Track 12

Filename H:\DL\Bent Sorensen - Mignon (2017) [FLAC]\12 - Standchen - I. -.wav

Pre-gap length 0:00:04.30

Peak level 55.7 %
Extraction speed 2.8 X
Track quality 99.9 %
Test CRC 8392CDB6
Copy CRC 8392CDB6
Track not present in AccurateRip database
Copy OK

Track 13

Filename H:\DL\Bent Sorensen - Mignon (2017) [FLAC]\13 - Standchen - II. -.wav

Peak level 33.6 %
Extraction speed 3.4 X
Track quality 100.0 %
Test CRC EF897610
Copy CRC EF897610
Track not present in AccurateRip database
Copy OK

Track 14

Filename H:\DL\Bent Sorensen - Mignon (2017) [FLAC]\14 - Standchen - III. -.wav

Peak level 90.6 %
Extraction speed 3.1 X
Track quality 99.9 %
Test CRC 90DFCAE0
Copy CRC 90DFCAE0
Track not present in AccurateRip database
Copy OK

Track 15

Filename H:\DL\Bent Sorensen - Mignon (2017) [FLAC]\15 - Standchen - IV. -.wav

Peak level 89.8 %
Extraction speed 3.1 X
Track quality 100.0 %
Test CRC CB288E65
Copy CRC CB288E65
Track not present in AccurateRip database
Copy OK

Track 16

Filename H:\DL\Bent Sorensen - Mignon (2017) [FLAC]\16 - Standchen - V. -.wav

Peak level 96.6 %
Extraction speed 3.0 X
Track quality 100.0 %
Test CRC 5B3256ED
Copy CRC 5B3256ED
Track not present in AccurateRip database
Copy OK

Track 17

Filename H:\DL\Bent Sorensen - Mignon (2017) [FLAC]\17 - The Weeping White Room.wav

Pre-gap length 0:00:06.03

Peak level 73.3 %
Extraction speed 3.6 X
Track quality 99.9 %
Test CRC DF6A4573
Copy CRC DF6A4573
Track not present in AccurateRip database
Copy OK


None of the tracks are present in the AccurateRip database

No errors occurred

End of status report

–– CUETools DB Plugin V2.1.6

[CTDB TOCID: uScvI2sjZw1FCZ5H3hX.CRudNVs-] found
Submit result: uScvI2sjZw1FCZ5H3hX.CRudNVs- has been confirmed
Track | CTDB Status
1 | (3/3) Accurately ripped
2 | (3/3) Accurately ripped
3 | (3/3) Accurately ripped
4 | (3/3) Accurately ripped
5 | (3/3) Accurately ripped
6 | (3/3) Accurately ripped
7 | (3/3) Accurately ripped
8 | (3/3) Accurately ripped
9 | (3/3) Accurately ripped
10 | (3/3) Accurately ripped
11 | (3/3) Accurately ripped
12 | (3/3) Accurately ripped
13 | (3/3) Accurately ripped
14 | (3/3) Accurately ripped
15 | (3/3) Accurately ripped
16 | (3/3) Accurately ripped
17 | (3/3) Accurately ripped


==== Log checksum 3ED0967880226CFCD570FE2A0E4A35E2E50B1AD489EB509660BC5520F9528CB7 ====



Katrine Gislinge, Lapland Chamber Orchestra & John Storgards - Bent Sørensen: Mignon (2017)

Thanks to the Original ripper dtromp !