Subcategories

Keith Jarrett - W.A. Mozart: Piano Concertos K.271, 453, 466. K.546 (1999) [2CD] {ECM New Series 1624/25} [Repost]

Posted By: ruskaval
Keith Jarrett - W.A. Mozart: Piano Concertos K.271, 453, 466. K.546 (1999) [2CD] {ECM New Series 1624/25} [Repost]

Keith Jarrett - W.A. Mozart: Piano Concertos K.271, 453, 466. Adagio and Fugue K.546 (1999) [2CD] {ECM New Series 1624/25}
EAC rip (secure mode) | FLAC+CUE+LOG -> 411 Mb | MP3 @320 -> 245 Mb
Full Artwork @ 300 dpi (jpg) -> 35 Mb
© 1999 ECM Records | 449 670-2 / ECM 1624/25
Classical / Piano

Jarrett brings to his Mozart repertoire steadiness of interpretation and relaxation that may surprise listeners who know him mainly for the adventurousness and quirks of his celebrated marathon solo recordings. A jazz pianist performing classical music might be expected to take rubato liberties. Jarrett does not. His reading of the magnificent pre-Romantic D-minor concerto No. 20, K. 466, employs effective dynamics without extremes in the direction of Arthur Rubenstein's daring and exuberance in the rondo, Mitsuko Uchida's mystique behind the beat in the romance movement or Clara Haskil's blurred articulation at the piano entry in the allegro.

With precision, and power in reserve, Jarrett comes out of the D-minor closer to the conservatism of John O'Connor or Murray Perahia than to the adventures in touch and phrasing of any number of pianists, including Artur Schnabel, Yvonne Lefebure, Eugene List, and, on the rare occasions when he tackled a Mozart concerto, the exquisitely eccentric Glenn Gould. Mozart's genius lends itself to a wide range of visions. Jarrett's respectful versions of the D-minor concerto, the slightly earlier G-major and the much earlier E-flat major (written when Mozart was 21) are good starting places for those who want to enter Mozart's endlessly stimulating universe.
tracklist:
CD1
01. Concerto for Piano and Orchestra K.466 - Allegro
02. Concerto for Piano and Orchestra K.466 - Romance
03. Concerto for Piano and Orchestra K.466 - Allegro assai
04. Concerto for Piano and Orchestra K.453 - Allegro
05. Concerto for Piano and Orchestra K.453 - Andante
06. Concerto for Piano and Orchestra K.453 - Allegretto - Finale: Presto

CD2:
01. Concerto for Piano and Orchestra K.271 - Allegro
02. Concerto for Piano and Orchestra K.271 - Andantino
03. Concerto for Piano and Orchestra K.271 - Rondeau: Presto
04. Adagio and Fugue in C minor, K.546 for String Orchestra

Keith Jarrett - W.A. Mozart: Piano Concertos K.271, 453, 466. K.546 (1999) [2CD] {ECM New Series 1624/25} [Repost]

Keith Jarrett - W.A. Mozart: Piano Concertos K.271, 453, 466. K.546 (1999) [2CD] {ECM New Series 1624/25} [Repost]

EAC extraction logfile from 26. October 2005, 19:28 for CD
Wolfgang Amadeus Mozart / Piano Concertos [Jarrett - Stuttgarter Kammerochester - Russell Davies] - I

Used drive : PLEXTOR CD-R PREMIUM Adapter: 1 ID: 0
Read mode : Secure with NO C2, accurate stream, disable cache
Read offset correction : 30
Overread into Lead-In and Lead-Out : Yes

Used output format : E:\Programmi\Exact Audio Copy 0.95\Encoders\flac.exe (User Defined Encoder)
224 kBit/s
Additional command line options : -8 -V -T "artist=%a" -T "title=%t" -T "album=%g" -T "date=%y" -T "tracknumber=%n" -T "genre=%m" -T "comment=Exact Audio Copy 0.95 pb5 Secure Mode / FLAC q8 v. 1.1.2" %s

Other options :
Fill up missing offset samples with silence : Yes
Delete leading and trailing silent blocks : No
Installed external ASPI interface


Track 1
Filename D:\Seed\Keith Jarrett plays Mozart Piano Concertos [Russell Davies]\Disc 1\01 - [K. 466] - I. Allegro.wav

Pre-gap length 0:00:02.00

Peak level 100.0 %
Track quality 100.0 %
Test CRC 84E49B45
Copy CRC 84E49B45
Copy OK

Track 2
Filename D:\Seed\Keith Jarrett plays Mozart Piano Concertos [Russell Davies]\Disc 1\02 - [K. 466] - II. Romance.wav

Peak level 82.1 %
Track quality 100.0 %
Test CRC F0E5C18D
Copy CRC F0E5C18D
Copy OK

Track 3
Filename D:\Seed\Keith Jarrett plays Mozart Piano Concertos [Russell Davies]\Disc 1\03 - [K. 466] - III Allegro assai.wav

Peak level 99.4 %
Track quality 99.9 %
Test CRC CD62F5B5
Copy CRC CD62F5B5
Copy OK

Track 4
Filename D:\Seed\Keith Jarrett plays Mozart Piano Concertos [Russell Davies]\Disc 1\04 - [K. 453] - I. Allegro.wav

Peak level 90.1 %
Track quality 100.0 %
Test CRC 425736E3
Copy CRC 425736E3
Copy OK

Track 5
Filename D:\Seed\Keith Jarrett plays Mozart Piano Concertos [Russell Davies]\Disc 1\05 - [K. 453] - II. Andante.wav

Peak level 62.1 %
Track quality 99.9 %
Test CRC 8C4C85E6
Copy CRC 8C4C85E6
Copy OK

Track 6
Filename D:\Seed\Keith Jarrett plays Mozart Piano Concertos [Russell Davies]\Disc 1\06 - [K. 453] - III. Allegretto - Finale. Presto.wav

Peak level 100.0 %
Track quality 100.0 %
Test CRC C252EB7E
Copy CRC C252EB7E
Copy OK

No errors occured


End of status report
==============================================================================================
EAC extraction logfile from 26. October 2005, 20:21 for CD
Wolfgang Amadeus Mozart / Piano Concertos [Jarrett - Stuttgarter Kammerochester - Russell Davies] - II

Used drive : PLEXTOR CD-R PREMIUM Adapter: 1 ID: 0
Read mode : Secure with NO C2, accurate stream, disable cache
Read offset correction : 30
Overread into Lead-In and Lead-Out : Yes

Used output format : E:\Programmi\Exact Audio Copy 0.95\Encoders\flac.exe (User Defined Encoder)
224 kBit/s
Additional command line options : -8 -V -T "artist=%a" -T "title=%t" -T "album=%g" -T "date=%y" -T "tracknumber=%n" -T "genre=%m" -T "comment=Exact Audio Copy 0.95 pb5 Secure Mode / FLAC q8 v. 1.1.2" %s

Other options :
Fill up missing offset samples with silence : Yes
Delete leading and trailing silent blocks : No
Installed external ASPI interface


Track 1
Filename D:\Seed\Keith Jarrett plays Mozart Piano Concertos [Russell Davies]\Disc 2\01 - [K. 271] - I. Allegro.wav

Pre-gap length 0:00:02.00

Peak level 98.1 %
Track quality 100.0 %
Test CRC 4B2C28A8
Copy CRC 4B2C28A8
Copy OK

Track 2
Filename D:\Seed\Keith Jarrett plays Mozart Piano Concertos [Russell Davies]\Disc 2\02 - [K. 271] - II. Andantino.wav

Peak level 76.1 %
Track quality 100.0 %
Test CRC EEDE235F
Copy CRC EEDE235F
Copy OK

Track 3
Filename D:\Seed\Keith Jarrett plays Mozart Piano Concertos [Russell Davies]\Disc 2\03 - [K. 271] - III. Rondeau. Presto.wav

Peak level 92.1 %
Track quality 100.0 %
Test CRC 641BEA2B
Copy CRC 641BEA2B
Copy OK

Track 4
Filename D:\Seed\Keith Jarrett plays Mozart Piano Concertos [Russell Davies]\Disc 2\04 - [K. 546] - Adagio and Fugue for String Orchestra.wav

Peak level 65.8 %
Track quality 100.0 %
Test CRC E393EBBA
Copy CRC E393EBBA
Copy OK

No errors occured


End of status report


Not my rip & scan job. Special Thanks to the original uploader!

dead links -> send me a Private Message…

FileSonic Linkz

or

FileServe Linkz

p.s. the files are interchangeable…

No Mirror, plz!