Subcategories

Kenny Burrell - For Charlie Christian and Benny Goodman (1986) {Verve 831 087-2 rec 1966-67}

Posted By: ruskaval
Kenny Burrell - For Charlie Christian and Benny Goodman (1986) {Verve 831 087-2 rec 1966-67}

Kenny Burrell - For Charlie Christian and Benny Goodman (1986) {Verve 831 087-2 rec 1966-67}
EAC rip (secure mode) | FLAC (tracks)+CUE+LOG -> 229 Mb | MP3 @320 -> 108 Mb
Full Artwork @ 600 dpi (jpg) -> 71 Mb | 5% repair rar
© 1966-67, 1986 Verve / PolyGram | 831 087-2
Jazz / Bop / Guitar

Kenny Burrell's tribute to Charlie Christian and Benny Goodman covers 11 of the songs they recorded together, but doesn't make the mistake of trying to sound anything like their historic recordings during their short time performing together. The guitarist is joined by a first-rate group, including Phil Woods on alto sax and clarinet, bassist Ron Carter, drummer Grady Tate, and vibraphonist Mike Mainieri. Burrell is the only soloist on a soft bossa nova treatment of "As Long as I Live" and the lightly swinging "I Surrender Dear."

Things pick up a bit with a driving arrangement of "Stompin' at the Savoy," as Woods' brash alto briefly grabs the spotlight in exchanges with the leader, while Woods switches to clarinet for the snappy blues "A Smooth One" (which also adds Richard Wyands on piano) and the foot-patting "Moonglow." Burrell kicks into high gear for one of Goodman's most requested numbers, the always exciting "Seven Come Eleven," which also has a brief understated vibes solo by Mainieri. This is well worth acquiring by fans of Kenny Burrell.

Musicians
Guitar Kenny Burrell
Clarinet, Saxophone Phil Woods
Bass Ron Carter
Drums Grady Tate
Vibes Mike Maineri
Piano Richard Wyands

Tracks
01 As Long As I Live 02:43
02 Poor Butterfly 05:49
03 Stompin' At The Savoy 06:10
04 I Surrender Dear 04:48
05 Rose Room 05:33
06 If I Had You 02:42
07 A Smooth One 04:05
08 Wholly Cats 02:44
09 Seven Come Eleven 04:02
10 Moonglow 03:15
11 Flying Home 03:49

Exact Audio Copy V1.1 from 23. June 2015

EAC extraction logfile from 11. January 2019, 22:25

Kenny Burrell / For Charlie Christian And Benny Goodman

Used drive : SONY DVD RW DRU-810A Adapter: 1 ID: 1

Read mode : Secure
Utilize accurate stream : Yes
Defeat audio cache : Yes
Make use of C2 pointers : No

Read offset correction : 618
Overread into Lead-In and Lead-Out : No
Fill up missing offset samples with silence : Yes
Delete leading and trailing silent blocks : No
Null samples used in CRC calculations : Yes
Used interface : Native Win32 interface for Win NT & 2000
Gap handling : Appended to previous track

Used output format : User Defined Encoder
Selected bitrate : 128 kBit/s
Quality : High
Add ID3 tag : No
Command line compressor : C:\Program Files (x86)\Exact Audio Copy\Flac\flac.exe
Additional command line options : -8 -V -T "ARTIST=%artist%" -T "TITLE=%title%" -T "ALBUM=%albumtitle%" -T "DATE=%year%" -T "TRACKNUMBER=%tracknr%" -T "TOTALTRACKS=%numtracks%" -T "GENRE=%genre%" -T "ALBUMARTIST=%albumartist%" -T "ALBUM ARTIST=%albumartist%" -T "COMMENT=EAC Secure Mode, Test & Copy, AccurateRip, FLAC -8" %source%


TOC of the extracted CD

Track | Start | Length | Start sector | End sector
––––––––––––––––––––––––––––-
1 | 0:00.32 | 2:43.28 | 32 | 12284
2 | 2:43.60 | 5:49.17 | 12285 | 38476
3 | 8:33.02 | 6:10.03 | 38477 | 66229
4 | 14:43.05 | 4:48.47 | 66230 | 87876
5 | 19:31.52 | 5:33.68 | 87877 | 112919
6 | 25:05.45 | 2:42.12 | 112920 | 125081
7 | 27:47.57 | 4:05.03 | 125082 | 143459
8 | 31:52.60 | 2:44.72 | 143460 | 155831
9 | 34:37.57 | 4:02.55 | 155832 | 174036
10 | 38:40.37 | 3:15.53 | 174037 | 188714
11 | 41:56.15 | 3:47.00 | 188715 | 205739


Track 1

Filename G:\New Rips\Kenny Burrell - For Charlie Christian And Benny Goodman (1986) [FLAC]\01 - As Long As I Live.wav

Pre-gap length 0:00:02.32

Peak level 89.7 %
Extraction speed 3.9 X
Track quality 100.0 %
Test CRC CDF3E0B6
Copy CRC CDF3E0B6
Accurately ripped (confidence 8) [3957E4F3] (AR v2)
Copy OK

Track 2

Filename G:\New Rips\Kenny Burrell - For Charlie Christian And Benny Goodman (1986) [FLAC]\02 - Poor Butterfly.wav

Pre-gap length 0:00:03.13

Peak level 93.0 %
Extraction speed 4.4 X
Track quality 99.9 %
Test CRC 12EC0EE4
Copy CRC 12EC0EE4
Accurately ripped (confidence 8) [C14E8E31] (AR v2)
Copy OK

Track 3

Filename G:\New Rips\Kenny Burrell - For Charlie Christian And Benny Goodman (1986) [FLAC]\03 - Stompin At The Savoy.wav

Pre-gap length 0:00:03.20

Peak level 86.2 %
Extraction speed 5.6 X
Track quality 100.0 %
Test CRC DC0DD5A2
Copy CRC DC0DD5A2
Accurately ripped (confidence 8) [195292CE] (AR v2)
Copy OK

Track 4

Filename G:\New Rips\Kenny Burrell - For Charlie Christian And Benny Goodman (1986) [FLAC]\04 - I Surrender Dear.wav

Pre-gap length 0:00:03.38

Peak level 66.3 %
Extraction speed 5.9 X
Track quality 100.0 %
Test CRC 325045D0
Copy CRC 325045D0
Accurately ripped (confidence 8) [AD5D381B] (AR v2)
Copy OK

Track 5

Filename G:\New Rips\Kenny Burrell - For Charlie Christian And Benny Goodman (1986) [FLAC]\05 - Rose Room.wav

Pre-gap length 0:00:03.35

Peak level 100.0 %
Extraction speed 6.5 X
Track quality 100.0 %
Test CRC 970827C5
Copy CRC 970827C5
Accurately ripped (confidence 8) [FF25C8F8] (AR v2)
Copy OK

Track 6

Filename G:\New Rips\Kenny Burrell - For Charlie Christian And Benny Goodman (1986) [FLAC]\06 - If I Had You.wav

Pre-gap length 0:00:02.67

Peak level 97.1 %
Extraction speed 6.1 X
Track quality 100.0 %
Test CRC 3C4A66E8
Copy CRC 3C4A66E8
Accurately ripped (confidence 8) [D473D45E] (AR v2)
Copy OK

Track 7

Filename G:\New Rips\Kenny Burrell - For Charlie Christian And Benny Goodman (1986) [FLAC]\07 - A Smooth One.wav

Pre-gap length 0:00:03.15

Peak level 98.7 %
Extraction speed 5.7 X
Track quality 99.9 %
Test CRC 9DE91907
Copy CRC 9DE91907
Accurately ripped (confidence 8) [19336E96] (AR v2)
Copy OK

Track 8

Filename G:\New Rips\Kenny Burrell - For Charlie Christian And Benny Goodman (1986) [FLAC]\08 - Wholly Cats.wav

Pre-gap length 0:00:03.05

Peak level 76.8 %
Extraction speed 6.6 X
Track quality 100.0 %
Test CRC 941D074B
Copy CRC 941D074B
Accurately ripped (confidence 8) [2911C92D] (AR v2)
Copy OK

Track 9

Filename G:\New Rips\Kenny Burrell - For Charlie Christian And Benny Goodman (1986) [FLAC]\09 - Seven Come Eleven.wav

Pre-gap length 0:00:03.37

Peak level 87.8 %
Extraction speed 7.2 X
Track quality 100.0 %
Test CRC 755F9EAF
Copy CRC 755F9EAF
Accurately ripped (confidence 8) [031D1E85] (AR v2)
Copy OK

Track 10

Filename G:\New Rips\Kenny Burrell - For Charlie Christian And Benny Goodman (1986) [FLAC]\10 - Moonglow.wav

Pre-gap length 0:00:03.52

Peak level 73.1 %
Extraction speed 7.1 X
Track quality 100.0 %
Test CRC 380E3FD8
Copy CRC 380E3FD8
Accurately ripped (confidence 8) [B5BC308F] (AR v2)
Copy OK

Track 11

Filename G:\New Rips\Kenny Burrell - For Charlie Christian And Benny Goodman (1986) [FLAC]\11 - Flying Home.wav

Pre-gap length 0:00:02.73

Peak level 83.5 %
Extraction speed 7.5 X
Track quality 100.0 %
Test CRC 98CD04B3
Copy CRC 98CD04B3
Accurately ripped (confidence 9) [DC9093BB] (AR v2)
Copy OK


All tracks accurately ripped

No errors occurred

End of status report

–– CUETools DB Plugin V2.1.6

[CTDB TOCID: UWqrESs1zfFPzdkB6zr5GJ72GOc-] found
Submit result: UWqrESs1zfFPzdkB6zr5GJ72GOc- has been confirmed
Track | CTDB Status
1 | (15/15) Accurately ripped
2 | (15/15) Accurately ripped
3 | (15/15) Accurately ripped
4 | (14/15) Accurately ripped
5 | (15/15) Accurately ripped
6 | (15/15) Accurately ripped
7 | (15/15) Accurately ripped
8 | (15/15) Accurately ripped
9 | (14/15) Accurately ripped
10 | (15/15) Accurately ripped
11 | (15/15) Accurately ripped


==== Log checksum AC2600872C55F94638DFA5EED1FDA427B24F0270DF45A94215A4A00DBA507B53 ====


Kenny Burrell - For Charlie Christian and Benny Goodman (1986) {Verve 831 087-2 rec 1966-67}

Kenny Burrell - For Charlie Christian and Benny Goodman (1986) {Verve 831 087-2 rec 1966-67}



===