Subcategories

Kenny Burrell And Jimmy Smith - Blue Bash! (1963) {Verve Master Edition 557 453-2 re1 1999}

Posted By: ruskaval
Kenny Burrell And Jimmy Smith - Blue Bash! (1963) {Verve Master Edition 557 453-2 re1 1999}

Kenny Burrell And Jimmy Smith - Blue Bash! (1963) {Verve Master Edition 557 453-2 re1 1999}
EAC rip (secure mode) | FLAC (tracks)+CUE+LOG -> 342 Mb | MP3 @320 -> 143 Mb
Full Artwork @ 300 dpi (jpg) -> 38 Mb | 5% repair rar
© 1963, 1999 PolyGram / Verve Master Edition | 557 453-2
Jazz / Hard Bop / Soul Jazz / Guitar / Organ Hammond B-3

Groove great Kenny Burrell and Jimmy Smith (Hammond organ) together on the same album. Includes a rendition of "Fever." Three days of spare studio time while Smith was at work on a big-band date led to this highly enjoyable blowing session. The principals' interplay on the title-track sums up their whole musical relationship: punchy, bluesy but soaked in the good homour of playing for kicks.
Kenny Burrell And Jimmy Smith - Blue Bash! (1963) {Verve Master Edition 557 453-2 re1 1999}


Personnel:
Kenny Burrell - guitar
Jimmy Smith - organ
Milt Hinton, George Duvivier - bass
Bill English, Mel Lewis - drums

tracklist:
01 - Blue Bash
02 - Travelin'
03 - Fever
04 - Blues For Del
05 - Easy Living
06 - Soft Winds
07 - Kenny's Sound
08 - Travelin' (alt tk)
09 - Fever (alt tk)
10 - Soft Winds (alt tk)
11 - Kenny's Sound (alt tk)
12 - Easy Living (alt tk)
13 - Travelin' (breakdown tk)
14 - Kenny's Sound (alt tk)

Exact Audio Copy V0.99 prebeta 5 from 4. May 2009

EAC extraction logfile from 27. October 2010, 18:06

Kenny Burrell And Jimmy Smith / Blue Bash

Used drive : TSSTcorpCDDVDW SH-S203N Adapter: 0 ID: 2

Read mode : Secure
Utilize accurate stream : Yes
Defeat audio cache : Yes
Make use of C2 pointers : No

Read offset correction : 6
Overread into Lead-In and Lead-Out : No
Fill up missing offset samples with silence : Yes
Delete leading and trailing silent blocks : No
Null samples used in CRC calculations : Yes
Used interface : Installed external ASPI interface
Gap handling : Appended to previous track

Used output format : User Defined Encoder
Selected bitrate : 768 kBit/s
Quality : High
Add ID3 tag : No
Command line compressor : C:\Program Files\Exact Audio Copy\Flac\flac.exe
Additional command line options : -8 -V -T "ARTIST=%a" -T "TITLE=%t" -T "ALBUM=%g" -T "DATE=%y" -T "TRACKNUMBER=%n" -T "TOTALTRACKS=%x" -T "GENRE=%m" -T "ALBUMARTIST=%v" -T "ALBUM ARTIST=%v" -T "COMMENT=EAC V0.99 pb5, Secure Mode, Test & Copy, AccurateRip,


TOC of the extracted CD

Track | Start | Length | Start sector | End sector
––––––––––––––––––––––––––––-
1 | 0:00.00 | 5:07.20 | 0 | 23044
2 | 5:07.20 | 5:29.47 | 23045 | 47766
3 | 10:36.67 | 5:36.53 | 47767 | 73019
4 | 16:13.45 | 6:17.10 | 73020 | 101304
5 | 22:30.55 | 2:56.40 | 101305 | 114544
6 | 25:27.20 | 5:44.60 | 114545 | 140404
7 | 31:12.05 | 4:21.35 | 140405 | 160014
8 | 35:33.40 | 3:47.62 | 160015 | 177101
9 | 39:21.27 | 3:07.70 | 177102 | 191196
10 | 42:29.22 | 5:12.03 | 191197 | 214599
11 | 47:41.25 | 4:04.17 | 214600 | 232916
12 | 51:45.42 | 5:27.60 | 232917 | 257501
13 | 57:13.27 | 1:45.63 | 257502 | 265439
14 | 58:59.15 | 4:29.27 | 265440 | 285641


Track 1

Filename J:\New Rips\Kenny Burrell And Jimmy Smith - Blue Bash (1999) [FLAC] {Verve 557 453-2 rec 1963}\01 - Blue Bash.wav

Pre-gap length 0:00:02.00

Peak level 95.0 %
Track quality 100.0 %
Test CRC 95DCAC9E
Copy CRC 95DCAC9E
Accurately ripped (confidence 10) [A2CC7131]
Copy OK

Track 2

Filename J:\New Rips\Kenny Burrell And Jimmy Smith - Blue Bash (1999) [FLAC] {Verve 557 453-2 rec 1963}\02 - Travelin'.wav

Peak level 81.4 %
Track quality 100.0 %
Test CRC 739A7D5D
Copy CRC 739A7D5D
Accurately ripped (confidence 10) [8626A568]
Copy OK

Track 3

Filename J:\New Rips\Kenny Burrell And Jimmy Smith - Blue Bash (1999) [FLAC] {Verve 557 453-2 rec 1963}\03 - Fever.wav

Peak level 86.8 %
Track quality 99.9 %
Test CRC B65DBF77
Copy CRC B65DBF77
Accurately ripped (confidence 10) [7910DEFA]
Copy OK

Track 4

Filename J:\New Rips\Kenny Burrell And Jimmy Smith - Blue Bash (1999) [FLAC] {Verve 557 453-2 rec 1963}\04 - Blues For Del.wav

Pre-gap length 0:00:01.10

Peak level 98.1 %
Track quality 100.0 %
Test CRC 2F651D01
Copy CRC 2F651D01
Accurately ripped (confidence 10) [832FB277]
Copy OK

Track 5

Filename J:\New Rips\Kenny Burrell And Jimmy Smith - Blue Bash (1999) [FLAC] {Verve 557 453-2 rec 1963}\05 - Easy Living.wav

Peak level 100.0 %
Track quality 100.0 %
Test CRC 180ECC20
Copy CRC 180ECC20
Accurately ripped (confidence 10) [F48FC4D7]
Copy OK

Track 6

Filename J:\New Rips\Kenny Burrell And Jimmy Smith - Blue Bash (1999) [FLAC] {Verve 557 453-2 rec 1963}\06 - Soft Winds.wav

Peak level 98.1 %
Track quality 100.0 %
Test CRC 31F6F751
Copy CRC 31F6F751
Accurately ripped (confidence 10) [EEB2FE20]
Copy OK

Track 7

Filename J:\New Rips\Kenny Burrell And Jimmy Smith - Blue Bash (1999) [FLAC] {Verve 557 453-2 rec 1963}\07 - Kenny's Sound.wav

Peak level 100.0 %
Track quality 100.0 %
Test CRC 95C2E19A
Copy CRC 95C2E19A
Accurately ripped (confidence 10) [0403C849]
Copy OK

Track 8

Filename J:\New Rips\Kenny Burrell And Jimmy Smith - Blue Bash (1999) [FLAC] {Verve 557 453-2 rec 1963}\08 - Travelin' (alt tk).wav

Pre-gap length 0:00:29.53

Peak level 100.0 %
Track quality 100.0 %
Test CRC 98922ED3
Copy CRC 98922ED3
Accurately ripped (confidence 9) [668C1948]
Copy OK

Track 9

Filename J:\New Rips\Kenny Burrell And Jimmy Smith - Blue Bash (1999) [FLAC] {Verve 557 453-2 rec 1963}\09 - Fever (alt tk).wav

Pre-gap length 0:00:12.22

Peak level 100.0 %
Track quality 99.9 %
Test CRC 2718B713
Copy CRC 2718B713
Accurately ripped (confidence 9) [F8AD93C6]
Copy OK

Track 10

Filename J:\New Rips\Kenny Burrell And Jimmy Smith - Blue Bash (1999) [FLAC] {Verve 557 453-2 rec 1963}\10 - Soft Winds (alt tk).wav

Pre-gap length 0:00:16.36

Peak level 93.4 %
Track quality 100.0 %
Test CRC A2291043
Copy CRC A2291043
Accurately ripped (confidence 9) [CAECB01E]
Copy OK

Track 11

Filename J:\New Rips\Kenny Burrell And Jimmy Smith - Blue Bash (1999) [FLAC] {Verve 557 453-2 rec 1963}\11 - Kenny's Sound (alt tk).wav

Pre-gap length 0:00:09.06

Peak level 100.0 %
Track quality 100.0 %
Test CRC 22DF3783
Copy CRC 22DF3783
Accurately ripped (confidence 9) [D5D4C6A2]
Copy OK

Track 12

Filename J:\New Rips\Kenny Burrell And Jimmy Smith - Blue Bash (1999) [FLAC] {Verve 557 453-2 rec 1963}\12 - Easy Living (alt tk).wav

Pre-gap length 0:00:05.20

Peak level 91.4 %
Track quality 100.0 %
Test CRC EDED2224
Copy CRC EDED2224
Accurately ripped (confidence 9) [0CC8CCE7]
Copy OK

Track 13

Filename J:\New Rips\Kenny Burrell And Jimmy Smith - Blue Bash (1999) [FLAC] {Verve 557 453-2 rec 1963}\13 - Travelin' (breakdown tk).wav

Pre-gap length 0:00:05.73

Peak level 73.7 %
Track quality 100.0 %
Test CRC 59DFD66A
Copy CRC 59DFD66A
Accurately ripped (confidence 9) [62BAC980]
Copy OK

Track 14

Filename J:\New Rips\Kenny Burrell And Jimmy Smith - Blue Bash (1999) [FLAC] {Verve 557 453-2 rec 1963}\14 - Kenny's Sound (alt tk).wav

Pre-gap length 0:00:07.84

Peak level 100.0 %
Track quality 100.0 %
Test CRC AF5B9330
Copy CRC AF5B9330
Accurately ripped (confidence 9) [5691ADF8]
Copy OK


All tracks accurately ripped

No errors occurred

End of status report


Kenny Burrell And Jimmy Smith - Blue Bash! (1963) {Verve Master Edition 557 453-2 re1 1999}

Kenny Burrell And Jimmy Smith - Blue Bash! (1963) {Verve Master Edition 557 453-2 re1 1999}



===