Subcategories

Kenny Burrell - Lotus Blossom (1995) {Concord Jazz CCD-4668}

Posted By: ruskaval
Kenny Burrell - Lotus Blossom (1995) {Concord Jazz CCD-4668}

Kenny Burrell - Lotus Blossom (1995) {Concord Jazz CCD-4668}
EAC rip (secure mode) | FLAC (tracks)+CUE+LOG -> 261 Mb | MP3 @320 -> 146 Mb
Full Artwork @ 300 dpi (jpg) -> 11 Mb | 5% repair rar
© 1995 Concord Jazz | CCD-4668
Jazz / Bop / Hard Bop / Guitar

Strange as it seems, the main criticism about this CD and about Kenny Burrell's playing during the past couple decades is that he is often overly tasteful. On this set (which has six unaccompanied guitar solos, four duets with bassist Ray Drummond, and three trio numbers with Drummond and drummer Yoron Israel), Burrell is so loving of the melodies that he adds very little of himself other than his beautiful tone. Although the tunes are superior, none of these versions are definitive and the mellow results rarely rise above the level of background music.
Burrell's touch, improvisations and choice of material are now legendary….this should appeal not only to Burrell's many fans but to jazz lovers in general. Perfect for those quiet times.
Kenny Burrell - Lotus Blossom (1995) {Concord Jazz CCD-4668}


Personnel:
Kenny Burrell (acoustic & electric guitars)
Ray Drummond (bass)
Yoran Israel (drums)

tracklist:
01 - Satin Doll
02 - Warm Valley
03 - There Will Never Be Another You
04 - Lotus Blossom
05 - If You Could See Me Now
06 - The Night Has A Thousand Eyes
07 - I Don't Stand A Ghost Of A Chance
08 - Minha (All Mine)
09 - For Once In My Life
10 - Couplet Once Upon A Summertime , When The World Was Young
11 - I'm Falling For You
12 - They Can't Take That Away From Me
13 - Old Folks

Exact Audio Copy V0.99 prebeta 5 from 4. May 2009

EAC extraction logfile from 2. April 2012, 12:19

Kenny Burrell / Lotus Blossom

Used drive : CDWRITERIDE5232 Adapter: 1 ID: 1

Read mode : Secure
Utilize accurate stream : Yes
Defeat audio cache : Yes
Make use of C2 pointers : No

Read offset correction : 6
Overread into Lead-In and Lead-Out : No
Fill up missing offset samples with silence : Yes
Delete leading and trailing silent blocks : No
Null samples used in CRC calculations : Yes
Used interface : Installed external ASPI interface
Gap handling : Appended to previous track

Used output format : Internal WAV Routines
Sample format : 44.100 Hz; 16 Bit; Stereo


TOC of the extracted CD

Track | Start | Length | Start sector | End sector
––––––––––––––––––––––––––––-
1 | 0:00.00 | 4:23.05 | 0 | 19729
2 | 4:23.05 | 4:26.07 | 19730 | 39686
3 | 8:49.12 | 4:06.03 | 39687 | 58139
4 | 12:55.15 | 3:46.67 | 58140 | 75156
5 | 16:42.07 | 5:42.18 | 75157 | 100824
6 | 22:24.25 | 5:02.52 | 100825 | 123526
7 | 27:27.02 | 4:59.18 | 123527 | 145969
8 | 32:26.20 | 5:31.07 | 145970 | 170801
9 | 37:57.27 | 4:22.68 | 170802 | 190519
10 | 42:20.20 | 3:43.65 | 190520 | 207309
11 | 46:04.10 | 5:23.20 | 207310 | 231554
12 | 51:27.30 | 5:39.72 | 231555 | 257051
13 | 57:07.27 | 5:54.38 | 257052 | 283639


Track 1

Filename C:\Kenny Burrell - Lotus Blossom (1995) [FLAC]\01 - Satin Doll.wav

Pre-gap length 0:00:02.00

Peak level 99.9 %
Track quality 100.0 %
Test CRC B52647F4
Copy CRC B52647F4
Cannot be verified as accurate (confidence 6) [88938083], AccurateRip returned [5234958F]
Copy OK

Track 2

Filename C:\Kenny Burrell - Lotus Blossom (1995) [FLAC]\02 - Warm Valley.wav

Pre-gap length 0:00:01.24

Peak level 73.0 %
Track quality 100.0 %
Test CRC 622BAFF6
Copy CRC 622BAFF6
Cannot be verified as accurate (confidence 6) [0BA51182], AccurateRip returned [99349C44]
Copy OK

Track 3

Filename C:\Kenny Burrell - Lotus Blossom (1995) [FLAC]\03 - There Will Never Be Another You.wav

Pre-gap length 0:00:01.76

Peak level 68.8 %
Track quality 99.9 %
Test CRC AD1A35CE
Copy CRC AD1A35CE
Cannot be verified as accurate (confidence 6) [FF549530], AccurateRip returned [12A682FB]
Copy OK

Track 4

Filename C:\Kenny Burrell - Lotus Blossom (1995) [FLAC]\04 - Lotus Blossom.wav

Pre-gap length 0:00:01.37

Peak level 77.0 %
Track quality 100.0 %
Test CRC 22942213
Copy CRC 22942213
Cannot be verified as accurate (confidence 6) [6EA73B75], AccurateRip returned [C17151BA]
Copy OK

Track 5

Filename C:\Kenny Burrell - Lotus Blossom (1995) [FLAC]\05 - If You Could See Me Now.wav

Pre-gap length 0:00:01.00

Peak level 67.1 %
Track quality 100.0 %
Test CRC C8001D66
Copy CRC C8001D66
Cannot be verified as accurate (confidence 6) [A9CBDE92], AccurateRip returned [C434CDB0]
Copy OK

Track 6

Filename C:\Kenny Burrell - Lotus Blossom (1995) [FLAC]\06 - The Night Has A Thousand Eyes.wav

Pre-gap length 0:00:01.66

Peak level 99.9 %
Track quality 100.0 %
Test CRC 55C97439
Copy CRC 55C97439
Cannot be verified as accurate (confidence 6) [63FEA60B], AccurateRip returned [E86B4974]
Copy OK

Track 7

Filename C:\Kenny Burrell - Lotus Blossom (1995) [FLAC]\07 - I Don't Stand A Ghost Of A Chance.wav

Pre-gap length 0:00:01.33

Peak level 58.8 %
Track quality 100.0 %
Test CRC F1CD9F98
Copy CRC F1CD9F98
Cannot be verified as accurate (confidence 6) [D81DD002], AccurateRip returned [FDA0D53E]
Copy OK

Track 8

Filename C:\Kenny Burrell - Lotus Blossom (1995) [FLAC]\08 - Minha (All Mine).wav

Pre-gap length 0:00:02.26

Peak level 99.6 %
Track quality 100.0 %
Test CRC CFDBE911
Copy CRC CFDBE911
Cannot be verified as accurate (confidence 6) [176B7FB9], AccurateRip returned [55418D2D]
Copy OK

Track 9

Filename C:\Kenny Burrell - Lotus Blossom (1995) [FLAC]\09 - For Once In My Life.wav

Pre-gap length 0:00:01.66

Peak level 78.2 %
Track quality 100.0 %
Test CRC B323D41F
Copy CRC B323D41F
Cannot be verified as accurate (confidence 6) [AE3D645C], AccurateRip returned [4202EE8C]
Copy OK

Track 10

Filename C:\Kenny Burrell - Lotus Blossom (1995) [FLAC]\10 - Couplet Once Upon A Summertime , When The World Was Young.wav

Pre-gap length 0:00:01.90

Peak level 50.6 %
Track quality 100.0 %
Test CRC 6BF0D2DC
Copy CRC 6BF0D2DC
Cannot be verified as accurate (confidence 6) [33F862F0], AccurateRip returned [56AE5326]
Copy OK

Track 11

Filename C:\Kenny Burrell - Lotus Blossom (1995) [FLAC]\11 - I'm Falling For You.wav

Pre-gap length 0:00:01.50

Peak level 83.6 %
Track quality 100.0 %
Test CRC 58E8C57D
Copy CRC 58E8C57D
Cannot be verified as accurate (confidence 6) [5F052388], AccurateRip returned [2960CDE7]
Copy OK

Track 12

Filename C:\Kenny Burrell - Lotus Blossom (1995) [FLAC]\12 - They Can't Take That Away From Me.wav

Pre-gap length 0:00:01.44

Peak level 97.2 %
Track quality 100.0 %
Test CRC 2F4E3BDF
Copy CRC 2F4E3BDF
Cannot be verified as accurate (confidence 6) [36859B1C], AccurateRip returned [40A59CCD]
Copy OK

Track 13

Filename C:\Kenny Burrell - Lotus Blossom (1995) [FLAC]\13 - Old Folks.wav

Pre-gap length 0:00:01.02

Peak level 65.0 %
Track quality 100.0 %
Test CRC 7BB32FB9
Copy CRC 7BB32FB9
Cannot be verified as accurate (confidence 6) [EFB378B9], AccurateRip returned [19B43D2C]
Copy OK


No tracks could be verified as accurate
You may have a different pressing from the one(s) in the database

No errors occurred

End of status report


Kenny Burrell - Lotus Blossom (1995) {Concord Jazz CCD-4668}

Kenny Burrell - Lotus Blossom (1995) {Concord Jazz CCD-4668}



===