Subcategories

Kenny Clarke & Francy Boland - The Golden Eight (1961) {Blue Note RVG 24bit Japan TOCJ-9544 rel 2003}

Posted By: ruskaval
Kenny Clarke & Francy Boland - The Golden Eight (1961) {Blue Note RVG 24bit Japan TOCJ-9544 rel 2003}

Kenny Clarke & Francy Boland - The Golden Eight (1961) {Blue Note RVG 24bit Japan TOCJ-9544 rel 2003}
EAC rip (secure mode) | FLAC (tracks)+CUE+LOG -> 307 Mb | MP3 @320 -> 101 Mb
Full Artwork @ 300 dpi (jpg) -> 22 Mb | 5% repair rar | 24-bit remaster
© 1961, 2003 Blue Note / Toshiba-EMI Japan | RVG Mini LP | TOCJ-9544
Jazz / Bop / Progressive Jazz

Reissue of the album recorded with Dusko Goykovich, et al. 24bit digitally remastered. Cardboard sleeve (mini LP). This is one of the rarest of all Blue Note albums, and one that is a must for record collectors. The Francy Boland/Kenny Clarke big band was one of the most exciting orchestras of the 1960s and ‘70s. Much less known but also brilliant was a unique octet co-led by Boland and Clarke just prior to the big band.

Called The Golden Eight, the group, in addition to pianist Boland and drummer Clarke, includes the dazzling hard bop trumpeter Duscko Gojkovic, alto sax, tenor sax, string bass and top musicians on both alto horn and baritone horn. The latter two horns were hardly ever featured in a jazz setting and they really add a great deal to the sound of the ensembles. The debut recording by the Golden Eight from 1961 is up to the level of the best Blue Note albums of the time even if few know about it. Mixing together inventive versions of standards with Boland’s memorable originals, this obscure classic will amaze today’s listeners.
Kenny Clarke & Francy Boland - The Golden Eight (1961) {Blue Note RVG 24bit Japan TOCJ-9544 rel 2003}


Personnel:
Kenny Clarke - drums
Francy Boland - piano
Dusko Gojkovic - trumpet
Raymond Droz - alto horn
Derek Humble - alto saxophone
Karl Drevo - tenor saxophone
Chris Kellens - baritone horn
Jimmy Woode - bass

tracklist:
01 - La Campimania
02 - Gloria
03 - High Notes
04 - Softly As In A Morning Sunrise
05 - The Golden Eight
06 - Strange Meeting
07 - You'd Be So Nice To Come Home To
08 - Dorian
09 - Poor Butterfly
10 - Basse Cuite

EAC extraction logfile from 26. June 2010, 21:52 for CD
Kenny Clarke-Francy Boland / The Golden Eight

Used drive : HP DVD Writer 1170d Adapter: 1 ID: 2
Read mode : Secure with NO C2, accurate stream, disable cache
Read offset correction : 6
Overread into Lead-In and Lead-Out : No

Used output format : C:\Eac\Codecs\flac.exe (User Defined Encoder)
320 kBit/s
Additional command line options : -8 -V -T "artist=%a" -T "title=%t" -T "album=%g" -T "date=%y" -T "tracknumber=%n" -T "genre=%m" -T "comment=EAC Flac 1.1.2 -8" %s

Other options :
Fill up missing offset samples with silence : Yes
Delete leading and trailing silent blocks : No
Installed external ASPI interface


Track 1
Filename C:\Documents and Settings\klook\01 - La Campimania.wav

Pre-gap length 0:00:02.00

Peak level 97.9 %
Track quality 100.0 %
Test CRC E0187DEB
Copy CRC E0187DEB
Copy OK

Track 2
Filename C:\Documents and Settings\klook\02 - Gloria.wav

Pre-gap length 0:00:02.00

Peak level 97.9 %
Track quality 100.0 %
Test CRC BDB4FB2A
Copy CRC BDB4FB2A
Copy OK

Track 3
Filename C:\Documents and Settings\klook\03 - High Notes.wav

Pre-gap length 0:00:03.17

Peak level 97.9 %
Track quality 99.9 %
Test CRC FD341F56
Copy CRC FD341F56
Copy OK

Track 4
Filename C:\Documents and Settings\klook\04 - Softly As In A Morning Sunrise.wav

Pre-gap length 0:00:02.28

Peak level 98.1 %
Track quality 100.0 %
Test CRC 296B9F15
Copy CRC 296B9F15
Copy OK

Track 5
Filename C:\Documents and Settings\klook\05 - The Golden Eight.wav

Pre-gap length 0:00:02.46

Peak level 97.9 %
Track quality 100.0 %
Test CRC 08219806
Copy CRC 08219806
Copy OK

Track 6
Filename C:\Documents and Settings\klook\06 - Strange Meeting.wav

Pre-gap length 0:00:02.84

Peak level 98.0 %
Track quality 100.0 %
Test CRC BF452D4F
Copy CRC BF452D4F
Copy OK

Track 7
Filename C:\Documents and Settings\klook\07 - You'd Be So Nice To Come Home To.wav

Pre-gap length 0:00:02.56

Peak level 97.9 %
Track quality 100.0 %
Test CRC 9C5EF663
Copy CRC 9C5EF663
Copy OK

Track 8
Filename C:\Documents and Settings\klook\08 - Dorian.wav

Pre-gap length 0:00:02.01

Peak level 97.9 %
Track quality 100.0 %
Test CRC 51438ED9
Copy CRC 51438ED9
Copy OK

Track 9
Filename C:\Documents and Settings\klook\09 - Poor Butterfly.wav

Pre-gap length 0:00:02.94

Peak level 97.9 %
Track quality 99.9 %
Test CRC FEE17CF2
Copy CRC FEE17CF2
Copy OK

Track 10
Filename C:\Documents and Settings\klook\10 - Basse Cuite.wav

Pre-gap length 0:00:02.14

Peak level 97.9 %
Track quality 100.0 %
Test CRC 68DE8AF1
Copy CRC 68DE8AF1
Copy OK

No errors occured


End of status report


Kenny Clarke & Francy Boland - The Golden Eight (1961) {Blue Note RVG 24bit Japan TOCJ-9544 rel 2003}

Kenny Clarke & Francy Boland - The Golden Eight (1961) {Blue Note RVG 24bit Japan TOCJ-9544 rel 2003}


see more Kenny Clarke & Francy Boland…


NEXT -> More Kenny Clarke & Francy Boland on the way…


===