Subcategories

Ketil Bjørnstad - Images (2015)

Posted By: Domestos
Ketil Bjørnstad - Images (2015)

Ketil Bjørnstad - Images (2015)
EAC Rip | FLAC (tracks+.cue, log) ~ 164.67 Mb | 56:14 | Scans included
Modern Creative, Contemporary Jazz | Label: Grappa - GRCD4515

This release, Images, is part of a twin set of the works of Ketil Bjornstad. The sister album, Shimmering, is being released simultaneously, and they will also be released as a double set. Both albums were recorded by Ketil Bjornstad himself, on the same piano, but two years apart in two different studios. Solo piano holds an important place in the compositional work of Bjornstad. His piano albums often morph into an improvised recital. Some parts of the album will have completely improvised segments, and some will have musical fragments that have a profound meaning for Bjornstad. Bjornstad describes “Images” as intimate. “I wanted to avoid many of the percussive elements that are always a part of my concerts. In that way, all of the remarkable overtones of this instrument became very powerful and prominent.”

Ketil Bjornstad - C. Bechstein Grand Piano, model C, serial number 196516

Recorded live at Propeller Music Division, Oslo on October 23, 2014.

Track List:
01. Image No.1 (Bjornstad) - 3:36
02. Image No.2 (Bjornstad) - 4:32
03. Image No.3 (Bjornstad) - 4:35
04. Image No.4 (Bjornstad) - 4:24
05. Image No.5 (Bjornstad) - 4:07
06. Image No.6 (Bjornstad) - 3:41
07. Image No.7 (Bjornstad) - 1:46
08. Image No.8 (Bjornstad) - 4:01
09. Image No.9 (Bjornstad) - 3:19
10. Image No.10 (Bjornstad) - 3:00
11. Image No.11 (Bjornstad) - 3:08
12. Image No.12 (Bjornstad) - 4:33
13. Image No.13 (Bjornstad) - 2:19
14. Image No.14 (Bjornstad) - 3:42
15. Image No.15 (Bjornstad) - 3:23
16. Image No.16 (Bjornstad) - 2:08

Ketil Bjørnstad - Images (2015)

Exact Audio Copy V1.3 from 2. September 2016

EAC extraction logfile from 1. April 2017, 14:31

Ketil Bjørnstad / Images

Used drive : Optiarc BD ROM BC-5650H Adapter: 1 ID: 1

Read mode : Secure
Utilize accurate stream : Yes
Defeat audio cache : Yes
Make use of C2 pointers : No

Read offset correction : 48
Overread into Lead-In and Lead-Out : No
Fill up missing offset samples with silence : Yes
Delete leading and trailing silent blocks : No
Null samples used in CRC calculations : Yes
Used interface : Native Win32 interface for Win NT & 2000
Gap handling : Appended to previous track

Used output format : User Defined Encoder
Selected bitrate : 1024 kBit/s
Quality : High
Add ID3 tag : No
Command line compressor : C:\Program Files\Exact Audio Copy\Flac\flac.exe
Additional command line options : -8 -e -V -T "ARTIST=%artist%" -T "TITLE=%title%" -T "ALBUM=%albumtitle%" -T "DATE=%year%" -T "TRACKNUMBER=%tracknr%" -T "GENRE=%genre%" -T "PERFORMER=%albuminterpret%" -T "COMPOSER=%composer%" %haslyrics%–tag-from-file=LYRICS="%lyricsfile%"%haslyrics% -T "ALBUMARTIST=%albumartist%" -T "DISCNUMBER=%cdnumber%" -T "TOTALDISCS=%totalcds%" -T "TOTALTRACKS=%numtracks%" -T "COMMENT=%comment%" %source% -o %dest%

TOC of the extracted CD

Track | Start | Length | Start sector | End sector
––––––––––––––––––––––––––––-
1 | 0:00.00 | 3:36.30 | 0 | 16229
2 | 3:36.30 | 4:32.11 | 16230 | 36640
3 | 8:08.41 | 4:34.55 | 36641 | 57245
4 | 12:43.21 | 4:24.36 | 57246 | 77081
5 | 17:07.57 | 4:06.65 | 77082 | 95596
6 | 21:14.47 | 3:40.44 | 95597 | 112140
7 | 24:55.16 | 1:46.20 | 112141 | 120110
8 | 26:41.36 | 4:01.02 | 120111 | 138187
9 | 30:42.38 | 3:19.01 | 138188 | 153113
10 | 34:01.39 | 3:00.22 | 153114 | 166635
11 | 37:01.61 | 3:08.01 | 166636 | 180736
12 | 40:09.62 | 4:32.61 | 180737 | 201197
13 | 44:42.48 | 2:19.35 | 201198 | 211657
14 | 47:02.08 | 3:41.50 | 211658 | 228282
15 | 50:43.58 | 3:23.32 | 228283 | 243539
16 | 54:07.15 | 2:07.51 | 243540 | 253115

Track 1

Filename Z:\home\enconding\FLAC\Ketil Bjørnstad - Images (2014)\01 - Image No.1.wav

Pre-gap length 0:00:02.00

Peak level 88.9 %
Extraction speed 8.5 X
Track quality 100.0 %
Test CRC 21B972AC
Copy CRC 21B972AC
Accurately ripped (confidence 8) [72E63652] (AR v2)
Copy OK

Track 2

Filename Z:\home\enconding\FLAC\Ketil Bjørnstad - Images (2014)\02 - Image No.2.wav

Pre-gap length 0:00:01.54

Peak level 88.8 %
Extraction speed 11.0 X
Track quality 100.0 %
Test CRC 753B09C7
Copy CRC 753B09C7
Accurately ripped (confidence 8) [F1EEBC50] (AR v2)
Copy OK

Track 3

Filename Z:\home\enconding\FLAC\Ketil Bjørnstad - Images (2014)\03 - Image No.3.wav

Pre-gap length 0:00:01.49

Peak level 88.9 %
Extraction speed 12.0 X
Track quality 100.0 %
Test CRC 6B034F29
Copy CRC 6B034F29
Accurately ripped (confidence 8) [1CE6EF75] (AR v2)
Copy OK

Track 4

Filename Z:\home\enconding\FLAC\Ketil Bjørnstad - Images (2014)\04 - Image No.4.wav

Pre-gap length 0:00:01.49

Peak level 63.4 %
Extraction speed 12.9 X
Track quality 100.0 %
Test CRC 4EF1B23D
Copy CRC 4EF1B23D
Accurately ripped (confidence 8) [20FD35E3] (AR v2)
Copy OK

Track 5

Filename Z:\home\enconding\FLAC\Ketil Bjørnstad - Images (2014)\05 - Image No.5.wav

Pre-gap length 0:00:01.49

Peak level 78.5 %
Extraction speed 13.7 X
Track quality 100.0 %
Test CRC DC1C41FA
Copy CRC DC1C41FA
Accurately ripped (confidence 8) [E4B215F6] (AR v2)
Copy OK

Track 6

Filename Z:\home\enconding\FLAC\Ketil Bjørnstad - Images (2014)\06 - Image No.6.wav

Pre-gap length 0:00:01.49

Peak level 84.1 %
Extraction speed 14.3 X
Track quality 100.0 %
Test CRC DDA11355
Copy CRC DDA11355
Accurately ripped (confidence 8) [E6E69EF8] (AR v2)
Copy OK

Track 7

Filename Z:\home\enconding\FLAC\Ketil Bjørnstad - Images (2014)\07 - Image No.7.wav

Pre-gap length 0:00:02.17

Peak level 38.2 %
Extraction speed 13.4 X
Track quality 100.0 %
Test CRC E810D3C6
Copy CRC E810D3C6
Accurately ripped (confidence 8) [70FB22FA] (AR v2)
Copy OK

Track 8

Filename Z:\home\enconding\FLAC\Ketil Bjørnstad - Images (2014)\08 - Image No.8.wav

Peak level 78.4 %
Extraction speed 13.8 X
Track quality 99.9 %
Test CRC C6E1E28F
Copy CRC C6E1E28F
Accurately ripped (confidence 8) [A41F3787] (AR v2)
Copy OK

Track 9

Filename Z:\home\enconding\FLAC\Ketil Bjørnstad - Images (2014)\09 - Image No.9.wav

Pre-gap length 0:00:01.44

Peak level 55.8 %
Extraction speed 15.3 X
Track quality 100.0 %
Test CRC 151A7974
Copy CRC 151A7974
Accurately ripped (confidence 8) [10ABE5DD] (AR v2)
Copy OK

Track 10

Filename Z:\home\enconding\FLAC\Ketil Bjørnstad - Images (2014)\10 - Image No.10.wav

Pre-gap length 0:00:02.35

Peak level 63.9 %
Extraction speed 15.4 X
Track quality 100.0 %
Test CRC F23774F9
Copy CRC F23774F9
Accurately ripped (confidence 8) [A12A95EE] (AR v2)
Copy OK

Track 11

Filename Z:\home\enconding\FLAC\Ketil Bjørnstad - Images (2014)\11 - Image No.11.wav

Pre-gap length 0:00:01.49

Peak level 68.7 %
Extraction speed 15.8 X
Track quality 100.0 %
Test CRC 6A6FEE80
Copy CRC 6A6FEE80
Accurately ripped (confidence 8) [56672FD3] (AR v2)
Copy OK

Track 12

Filename Z:\home\enconding\FLAC\Ketil Bjørnstad - Images (2014)\12 - Image No.12.wav

Pre-gap length 0:00:01.49

Peak level 88.9 %
Extraction speed 16.9 X
Track quality 100.0 %
Test CRC 6155C217
Copy CRC 6155C217
Accurately ripped (confidence 8) [69F81802] (AR v2)
Copy OK

Track 13

Filename Z:\home\enconding\FLAC\Ketil Bjørnstad - Images (2014)\13 - Image No.13.wav

Pre-gap length 0:00:01.68

Peak level 84.7 %
Extraction speed 16.2 X
Track quality 100.0 %
Test CRC 98F86614
Copy CRC 98F86614
Accurately ripped (confidence 8) [DEEE33A9] (AR v2)
Copy OK

Track 14

Filename Z:\home\enconding\FLAC\Ketil Bjørnstad - Images (2014)\14 - Image No.14.wav

Pre-gap length 0:00:03.15

Peak level 69.2 %
Extraction speed 17.2 X
Track quality 100.0 %
Test CRC D279383E
Copy CRC D279383E
Accurately ripped (confidence 8) [90BEB661] (AR v2)
Copy OK

Track 15

Filename Z:\home\enconding\FLAC\Ketil Bjørnstad - Images (2014)\15 - Image No.15.wav

Pre-gap length 0:00:01.49

Peak level 88.9 %
Extraction speed 17.4 X
Track quality 100.0 %
Test CRC 525FB7F1
Copy CRC 525FB7F1
Accurately ripped (confidence 8) [6C59587D] (AR v2)
Copy OK

Track 16

Filename Z:\home\enconding\FLAC\Ketil Bjørnstad - Images (2014)\16 - Image No.16.wav

Pre-gap length 0:00:01.49

Peak level 63.4 %
Extraction speed 16.6 X
Track quality 100.0 %
Test CRC DF0485C9
Copy CRC DF0485C9
Accurately ripped (confidence 8) [8665F56D] (AR v2)
Copy OK

All tracks accurately ripped

No errors occurred

End of status report

==== Log checksum 64F379C0FEC3B2EED7D46892ADF6DE56B223F86414BB90F395AABAFADC43A12A ====

All thanks go to the gagarin

More Music in My Blog
Follow My RSS Channel