Subcategories

Kevin Ayers - Rainbow Takeaway (1978) {2014 Remaster Japan Mini LP SHM-CD Edition WPCR-15530}

Posted By: ruskaval
Kevin Ayers - Rainbow Takeaway (1978) {2014 Remaster Japan Mini LP SHM-CD Edition WPCR-15530}

Kevin Ayers - Rainbow Takeaway (1978) {2014 Remaster Japan Mini LP SHM-CD Edition WPCR-15530}
EAC rip (secure mode) | FLAC (tracks)+CUE+LOG -> 429 Mb | MP3 @320 -> 165 Mb
Full Artwork @ 600 dpi (png) -> 374 Mb | 5% repair rar
© 1978, 2014 Parlophone / Warner Music Japan | WPCR-15530
Rock / Art Rock / Canterbury Scene

Cardboard sleeve reissue from Kevin Ayers features remastering in 2014 and the high-fidelity SHM-CD format (compatible with standard CD players). The cover faithfully replicates the original UK LP artwork. Includes an obi featuring design of original Japanese limited edition's LP (subject to change). Comes with a description and lyrics. Part of eight-album Kevin Ayers cardboard sleeve reissue series features the albums, "Joy Of A Toy +5," "Shooting At The Moon +6," "Whatevershebrings Wesing +10," "Bananamour +7," "Odd Ditties +3," "Yes We Have No Mananas. So Get Your Mananas Today +9," "Rainbow Takeaway +7," and "That's What You Get Babe +4." Bonus tracks.
Kevin Ayers - Rainbow Takeaway (1978) {2014 Remaster Japan Mini LP SHM-CD Edition WPCR-15530}

If you like Kevin Ayers and have not heard these songs, you will be pleasantly surprised. This CD finds the beloved troubadour sharing his charismatic playfulness, but to better effect than some of his later works. There's not a bad song in the bunch, and most are truly great. As I returned to this album to write a review, it was like visiting an old friend. I had forgotten how clever and funny Rainbow Takeaway is. The most memorable tune is probably Beware of the Dog due to its funky reggae influence, and when I see the cover that's the song I hum. But so many of the other compositions here deserve some aural focus. For Ayers fans, Strange Song could be considered a signature tune. The rest of the songs have that unpretentiousness and foppish charm Kevin Ayers achieves when he is at his best. The only thing disappointing about this collection of tunes is its brevity.

All tracks remastered in 2014 by Ryuichi Tanaka (Warner Music Mastering)

tracklist:
01 - Blaming It All On Love
02 - Ballad Of A Salesman Who Sold Himself
03 - A View From The Mountain
04 - Rainbow Takeaway
05 - Waltz For You
06 - Beware Of The Dog II
07 - Strange Song
08 - Goodnight Goodnight
09 - Hat Song
10 - Banana Introduction (Live) (bonus track)
11 - Stranger In Blue Suede Shoes (Live) (bonus track)
12 - Interview (Live) (bonus track)
13 - Whatevershebringswesing (Live) (bonus track)
14 - Oh! Wot A Dream (Live) (bonus track)
15 - Shouting In A Bucket Blues (Live) (bonus track)
16 - Caribbean Moon (Live) (bonus track)

Exact Audio Copy V1.0 beta 3 from 29. August 2011

EAC extraction logfile from 1. June 2014, 1:24

Kevin Ayers / Rainbow Takeaway

Used drive : ATAPI iHAS124 B Adapter: 2 ID: 1

Read mode : Secure
Utilize accurate stream : Yes
Defeat audio cache : Yes
Make use of C2 pointers : No

Read offset correction : 6
Overread into Lead-In and Lead-Out : No
Fill up missing offset samples with silence : Yes
Delete leading and trailing silent blocks : No
Null samples used in CRC calculations : Yes
Used interface : Native Win32 interface for Win NT & 2000
Gap handling : Appended to previous track

Used output format : User Defined Encoder
Selected bitrate : 1024 kBit/s
Quality : High
Add ID3 tag : No
Command line compressor : C:\Program Files (x86)\FLAC Frontend\tools\flac.exe
Additional command line options : -8 -V -T "ARTIST=%artist%" -T "TITLE=%title%" -T "ALBUM=%albumtitle%" -T "DATE=%year%" -T "TRACKNUMBER=%tracknr%" -T "TOTALTRACKS=%numtracks%" -T "GENRE=%genre%" -T "ALBUMARTIST=%albumartist%" -T "ALBUM ARTIST=%albumartist%" -T "COMMENT=EAC Secure Mode, Test & Copy, AccurateRip, FLAC -8" %source%


TOC of the extracted CD

Track | Start | Length | Start sector | End sector
––––––––––––––––––––––––––––-
1 | 0:00.00 | 3:00.09 | 0 | 13508
2 | 3:00.09 | 4:30.57 | 13509 | 33815
3 | 7:30.66 | 6:15.47 | 33816 | 61987
4 | 13:46.38 | 3:50.58 | 61988 | 79295
5 | 17:37.21 | 5:22.46 | 79296 | 103491
6 | 22:59.67 | 5:59.09 | 103492 | 130425
7 | 28:59.01 | 2:41.73 | 130426 | 142573
8 | 31:40.74 | 3:06.05 | 142574 | 156528
9 | 34:47.04 | 1:19.10 | 156529 | 162463
10 | 36:06.14 | 3:06.66 | 162464 | 176479
11 | 39:13.05 | 3:57.25 | 176480 | 194279
12 | 43:10.30 | 7:50.64 | 194280 | 229593
13 | 51:01.19 | 7:23.08 | 229594 | 262826
14 | 58:24.27 | 3:47.36 | 262827 | 279887
15 | 62:11.63 | 5:16.47 | 279888 | 303634
16 | 67:28.35 | 3:01.34 | 303635 | 317243


Track 1

Filename C:\Kevin Ayers - Rainbow Takeaway (1978) {2014 Remaster Japan Mini LP SHM-CD Edition}\01 - Blaming It All On Love.wav

Pre-gap length 0:00:02.00

Peak level 100.0 %
Extraction speed 1.9 X
Track quality 100.0 %
Test CRC 0E3AFFBD
Copy CRC 0E3AFFBD
Track not present in AccurateRip database
Copy OK

Track 2

Filename C:\Kevin Ayers - Rainbow Takeaway (1978) {2014 Remaster Japan Mini LP SHM-CD Edition}\02 - Ballad Of A Salesman Who Sold Himself.wav

Pre-gap length 0:00:02.20

Peak level 100.0 %
Extraction speed 2.3 X
Track quality 100.0 %
Test CRC 2701D06B
Copy CRC 2701D06B
Track not present in AccurateRip database
Copy OK

Track 3

Filename C:\Kevin Ayers - Rainbow Takeaway (1978) {2014 Remaster Japan Mini LP SHM-CD Edition}\03 - A View From The Mountain.wav

Peak level 100.0 %
Extraction speed 2.6 X
Track quality 100.0 %
Test CRC 843BF43D
Copy CRC 843BF43D
Track not present in AccurateRip database
Copy OK

Track 4

Filename C:\Kevin Ayers - Rainbow Takeaway (1978) {2014 Remaster Japan Mini LP SHM-CD Edition}\04 - Rainbow Takeaway.wav

Peak level 100.0 %
Extraction speed 2.7 X
Track quality 100.0 %
Test CRC E3179A71
Copy CRC E3179A71
Track not present in AccurateRip database
Copy OK

Track 5

Filename C:\Kevin Ayers - Rainbow Takeaway (1978) {2014 Remaster Japan Mini LP SHM-CD Edition}\05 - Waltz For You.wav

Pre-gap length 0:00:00.62

Peak level 100.0 %
Extraction speed 3.0 X
Track quality 100.0 %
Test CRC B0501375
Copy CRC B0501375
Track not present in AccurateRip database
Copy OK

Track 6

Filename C:\Kevin Ayers - Rainbow Takeaway (1978) {2014 Remaster Japan Mini LP SHM-CD Edition}\06 - Beware Of The Dog II.wav

Pre-gap length 0:00:01.06

Peak level 100.0 %
Extraction speed 3.3 X
Track quality 100.0 %
Test CRC D7C550D4
Copy CRC D7C550D4
Track not present in AccurateRip database
Copy OK

Track 7

Filename C:\Kevin Ayers - Rainbow Takeaway (1978) {2014 Remaster Japan Mini LP SHM-CD Edition}\07 - Strange Song.wav

Pre-gap length 0:00:00.46

Peak level 100.0 %
Extraction speed 2.0 X
Track quality 99.9 %
Test CRC 18DE2ED9
Copy CRC 18DE2ED9
Track not present in AccurateRip database
Copy OK

Track 8

Filename C:\Kevin Ayers - Rainbow Takeaway (1978) {2014 Remaster Japan Mini LP SHM-CD Edition}\08 - Goodnight Goodnight.wav

Pre-gap length 0:00:01.74

Peak level 100.0 %
Extraction speed 3.2 X
Track quality 100.0 %
Test CRC 1431F305
Copy CRC 1431F305
Track not present in AccurateRip database
Copy OK

Track 9

Filename C:\Kevin Ayers - Rainbow Takeaway (1978) {2014 Remaster Japan Mini LP SHM-CD Edition}\09 - Hat Song.wav

Pre-gap length 0:00:04.23

Peak level 100.0 %
Extraction speed 2.6 X
Track quality 100.0 %
Test CRC 928E48E4
Copy CRC 928E48E4
Track not present in AccurateRip database
Copy OK

Track 10

Filename C:\Kevin Ayers - Rainbow Takeaway (1978) {2014 Remaster Japan Mini LP SHM-CD Edition}\10 - Banana Introduction (Live).wav

Pre-gap length 0:00:01.59

Peak level 100.0 %
Extraction speed 2.3 X
Track quality 99.9 %
Test CRC F4FC28BA
Copy CRC F4FC28BA
Track not present in AccurateRip database
Copy OK

Track 11

Filename C:\Kevin Ayers - Rainbow Takeaway (1978) {2014 Remaster Japan Mini LP SHM-CD Edition}\11 - Stranger In Blue Suede Shoes (Live).wav

Peak level 100.0 %
Extraction speed 3.6 X
Track quality 100.0 %
Test CRC 7A0753F4
Copy CRC 7A0753F4
Track not present in AccurateRip database
Copy OK

Track 12

Filename C:\Kevin Ayers - Rainbow Takeaway (1978) {2014 Remaster Japan Mini LP SHM-CD Edition}\12 - Interview (Live).wav

Peak level 100.0 %
Extraction speed 4.1 X
Track quality 100.0 %
Test CRC 104216E4
Copy CRC 104216E4
Track not present in AccurateRip database
Copy OK

Track 13

Filename C:\Kevin Ayers - Rainbow Takeaway (1978) {2014 Remaster Japan Mini LP SHM-CD Edition}\13 - Whatevershebringswesing (Live).wav

Peak level 100.0 %
Extraction speed 4.2 X
Track quality 100.0 %
Test CRC AFDD4E39
Copy CRC AFDD4E39
Track not present in AccurateRip database
Copy OK

Track 14

Filename C:\Kevin Ayers - Rainbow Takeaway (1978) {2014 Remaster Japan Mini LP SHM-CD Edition}\14 - Oh! Wot A Dream (Live).wav

Peak level 100.0 %
Extraction speed 4.1 X
Track quality 100.0 %
Test CRC 61F2A537
Copy CRC 61F2A537
Track not present in AccurateRip database
Copy OK

Track 15

Filename C:\Kevin Ayers - Rainbow Takeaway (1978) {2014 Remaster Japan Mini LP SHM-CD Edition}\15 - Shouting In A Bucket Blues (Live).wav

Peak level 100.0 %
Extraction speed 4.4 X
Track quality 100.0 %
Test CRC 28BC6C8B
Copy CRC 28BC6C8B
Track not present in AccurateRip database
Copy OK

Track 16

Filename C:\Kevin Ayers - Rainbow Takeaway (1978) {2014 Remaster Japan Mini LP SHM-CD Edition}\16 - Caribbean Moon (Live).wav

Peak level 100.0 %
Extraction speed 4.1 X
Track quality 100.0 %
Test CRC C45E24F8
Copy CRC C45E24F8
Track not present in AccurateRip database
Copy OK


None of the tracks are present in the AccurateRip database

No errors occurred

End of status report

==== Log checksum BEC0A64E89D9B25377B51295A5E417DA3AE67EBE77BDCD819B205BDA9DE442F5 ====


Kevin Ayers - Rainbow Takeaway (1978) {2014 Remaster Japan Mini LP SHM-CD Edition WPCR-15530}

Kevin Ayers - Rainbow Takeaway (1978) {2014 Remaster Japan Mini LP SHM-CD Edition WPCR-15530}


see more Kevin Ayers…

NEXT -> more Kevin Ayers on the way…


===