Subcategories

Kevin Ayers - Still Life With Guitar (1992) {2013 Japan Mini LP Remaster AIRAC-1700}

Posted By: ruskaval
Kevin Ayers - Still Life With Guitar (1992) {2013 Japan Mini LP Remaster AIRAC-1700}

Kevin Ayers - Still Life With Guitar (1992) {2013 Japan Mini LP Remaster AIRAC-1700}
EAC rip (secure mode) | FLAC (tracks)+CUE+LOG -> 271 Mb | MP3 @320 -> 103 Mb
Full Artwork @ 600 dpi (png) -> 245 Mb | 5% repair rar | 24-bit remaster
© 1992, 2013 Airmail Japan / Dnvmusic | AIRAC-1700
Rock / Art Rock / Canterbury Scene

Cardboard sleeve (mini LP) reissue. Features 24 bit remastering in 2013. Comes with three bonus tracks. Still Life with Guitar is the fourteenth studio album by Kevin Ayers. It found him consolidating his 1988 return-to-form Falling Up[2] with a collection of largely acoustic songs that many critics regarded as being equal to material penned at the perceived heights of his career in the mid-1970s. Ayers produced the album, with his then manager Dave Vatch in England and was accompanied by an impressive cast of musicians, including Mike Oldfield, Ollie Halsall, Danny Thompson, BJ Cole, Mark E. Nevin and other members of Fairground Attraction.
Kevin Ayers - Still Life With Guitar (1992) {2013 Japan Mini LP Remaster AIRAC-1700}


tracklist:
01 - Feeling This Way
02 - Something In Between
03 - Thank You Very Much
04 - There Goes Johnny
05 - Ghost Train
06 - I Don't Depend On You
07 - When You Parents Go To Sleep
08 - M16
09 - Don't Blame Them
10 - Irene Good Night
11 - Don't Blame Them (alternate version) (bonus track)
12 - I Don't Depend On You (alternate version) (bonus track)
13 - Running In The Human Race (bonus track)

Exact Audio Copy V1.0 beta 3 from 29. August 2011

EAC extraction logfile from 27. August 2014, 0:36

Kevin Ayers / Still Life With Guitar

Used drive : ATAPI iHAS124 B Adapter: 2 ID: 1

Read mode : Secure
Utilize accurate stream : Yes
Defeat audio cache : Yes
Make use of C2 pointers : No

Read offset correction : 6
Overread into Lead-In and Lead-Out : No
Fill up missing offset samples with silence : Yes
Delete leading and trailing silent blocks : No
Null samples used in CRC calculations : Yes
Used interface : Native Win32 interface for Win NT & 2000
Gap handling : Appended to previous track

Used output format : User Defined Encoder
Selected bitrate : 1024 kBit/s
Quality : High
Add ID3 tag : No
Command line compressor : C:\Program Files (x86)\FLAC Frontend\tools\flac.exe
Additional command line options : -8 -V -T "ARTIST=%artist%" -T "TITLE=%title%" -T "ALBUM=%albumtitle%" -T "DATE=%year%" -T "TRACKNUMBER=%tracknr%" -T "TOTALTRACKS=%numtracks%" -T "GENRE=%genre%" -T "ALBUMARTIST=%albumartist%" -T "ALBUM ARTIST=%albumartist%" -T "COMMENT=EAC Secure Mode, Test & Copy, AccurateRip, FLAC -8" %source%


TOC of the extracted CD

Track | Start | Length | Start sector | End sector
––––––––––––––––––––––––––––-
1 | 0:00.00 | 2:42.46 | 0 | 12195
2 | 2:42.46 | 3:15.69 | 12196 | 26889
3 | 5:58.40 | 3:16.30 | 26890 | 41619
4 | 9:14.70 | 4:03.03 | 41620 | 59847
5 | 13:17.73 | 4:27.06 | 59848 | 79878
6 | 17:45.04 | 3:36.46 | 79879 | 96124
7 | 21:21.50 | 4:46.39 | 96125 | 117613
8 | 26:08.14 | 2:54.40 | 117614 | 130703
9 | 29:02.54 | 1:53.01 | 130704 | 139179
10 | 30:55.55 | 3:35.50 | 139180 | 155354
11 | 34:31.30 | 2:52.69 | 155355 | 168323
12 | 37:24.24 | 4:16.73 | 168324 | 187596
13 | 41:41.22 | 2:12.28 | 187597 | 197524


Track 1

Filename C:\Kevin Ayers - Still Life With Guitar (1992) {2013 Japan Mini LP Remaster}\01 - Feeling This Way.wav

Pre-gap length 0:00:02.00

Peak level 98.5 %
Extraction speed 1.7 X
Track quality 100.0 %
Test CRC 8C926645
Copy CRC 8C926645
Track not present in AccurateRip database
Copy OK

Track 2

Filename C:\Kevin Ayers - Still Life With Guitar (1992) {2013 Japan Mini LP Remaster}\02 - Something In Between.wav

Peak level 81.8 %
Extraction speed 1.9 X
Track quality 100.0 %
Test CRC 090F3549
Copy CRC 090F3549
Track not present in AccurateRip database
Copy OK

Track 3

Filename C:\Kevin Ayers - Still Life With Guitar (1992) {2013 Japan Mini LP Remaster}\03 - Thank You Very Much.wav

Peak level 84.7 %
Extraction speed 2.1 X
Track quality 100.0 %
Test CRC 291A1316
Copy CRC 291A1316
Track not present in AccurateRip database
Copy OK

Track 4

Filename C:\Kevin Ayers - Still Life With Guitar (1992) {2013 Japan Mini LP Remaster}\04 - There Goes Johnny.wav

Peak level 98.4 %
Extraction speed 1.7 X
Track quality 99.9 %
Test CRC 1288B92F
Copy CRC 1288B92F
Track not present in AccurateRip database
Copy OK

Track 5

Filename C:\Kevin Ayers - Still Life With Guitar (1992) {2013 Japan Mini LP Remaster}\05 - Ghost Train.wav

Peak level 97.1 %
Extraction speed 2.5 X
Track quality 100.0 %
Test CRC 4FF4D566
Copy CRC 4FF4D566
Track not present in AccurateRip database
Copy OK

Track 6

Filename C:\Kevin Ayers - Still Life With Guitar (1992) {2013 Japan Mini LP Remaster}\06 - I Don't Depend On You.wav

Peak level 98.3 %
Extraction speed 2.6 X
Track quality 100.0 %
Test CRC C514ED7D
Copy CRC C514ED7D
Track not present in AccurateRip database
Copy OK

Track 7

Filename C:\Kevin Ayers - Still Life With Guitar (1992) {2013 Japan Mini LP Remaster}\07 - When You Parents Go To Sleep.wav

Peak level 98.9 %
Extraction speed 2.1 X
Track quality 99.9 %
Test CRC 1D60E7F4
Copy CRC 1D60E7F4
Track not present in AccurateRip database
Copy OK

Track 8

Filename C:\Kevin Ayers - Still Life With Guitar (1992) {2013 Japan Mini LP Remaster}\08 - M16.wav

Peak level 97.9 %
Extraction speed 2.7 X
Track quality 100.0 %
Test CRC D8AD10F4
Copy CRC D8AD10F4
Track not present in AccurateRip database
Copy OK

Track 9

Filename C:\Kevin Ayers - Still Life With Guitar (1992) {2013 Japan Mini LP Remaster}\09 - Don't Blame Them.wav

Peak level 98.0 %
Extraction speed 2.6 X
Track quality 100.0 %
Test CRC E9A60055
Copy CRC E9A60055
Track not present in AccurateRip database
Copy OK

Track 10

Filename C:\Kevin Ayers - Still Life With Guitar (1992) {2013 Japan Mini LP Remaster}\10 - Irene Good Night.wav

Peak level 98.4 %
Extraction speed 3.0 X
Track quality 100.0 %
Test CRC E5AADB7B
Copy CRC E5AADB7B
Track not present in AccurateRip database
Copy OK

Track 11

Filename C:\Kevin Ayers - Still Life With Guitar (1992) {2013 Japan Mini LP Remaster}\11 - Don't Blame Them (alternate version) (bonus track).wav

Pre-gap length 0:00:04.74

Peak level 92.8 %
Extraction speed 3.0 X
Track quality 100.0 %
Test CRC 632987B3
Copy CRC 632987B3
Track not present in AccurateRip database
Copy OK

Track 12

Filename C:\Kevin Ayers - Still Life With Guitar (1992) {2013 Japan Mini LP Remaster}\12 - I Don't Depend On You (alternate version) (bonus track).wav

Peak level 91.2 %
Extraction speed 2.4 X
Track quality 99.9 %
Test CRC 37961CCF
Copy CRC 37961CCF
Track not present in AccurateRip database
Copy OK

Track 13

Filename C:\Kevin Ayers - Still Life With Guitar (1992) {2013 Japan Mini LP Remaster}\13 - Running In The Human Race (bonus track).wav

Peak level 74.3 %
Extraction speed 3.0 X
Track quality 100.0 %
Test CRC FBA23E41
Copy CRC FBA23E41
Track not present in AccurateRip database
Copy OK


None of the tracks are present in the AccurateRip database

No errors occurred

End of status report

==== Log checksum 13DCF89B9B8AAC402977A7848F0A69236F0AEFEA6AC9D3E9652A4C1C1505C3D8 ====


Kevin Ayers - Still Life With Guitar (1992) {2013 Japan Mini LP Remaster AIRAC-1700}

Kevin Ayers - Still Life With Guitar (1992) {2013 Japan Mini LP Remaster AIRAC-1700}


see more Kevin Ayers…

NEXT -> more Kevin Ayers on the way…


===