Subcategories

King Crimson - The 21st Century Guide To King Crimson: Volume Two [4CD Box Set '2005] *RE-UP

Posted By: perfecta
King Crimson - The 21st Century Guide To King Crimson: Volume Two [4CD Box Set '2005] *RE-UP

King Crimson - The 21st Century Guide To King Crimson: Vol.2 [4CD Box Set '2005]
EAC Rips | FLAC Images with CUEs & LOGs - 1,9 GB | Full Scans | MP3 CBR 320 Kbps - 718 MB
Progressive Rock | TT - 311:09 minutes | Label: Discipline Global Mobile | Cat. # DGM 0551-CD1~4

This set compiles what Robert Fripp contends is "a comprehensive overview for new ears of all that is necessary in the Crimson corpus". Going on to acknowledge that "old-generation completists might disagree with some choices, but material not included here is available for new-generation completists, should they wish".

King Crimson - The 21st Century Guide To King Crimson: Volume Two [4CD Box Set '2005] *RE-UP

allmusic.com says: It appears that just when you thought the folks at Discipline Global Mobile had re-released every single King Crimson track in as many configurations as possible, they surprise you with another compilation: 2005's The 21st Century Guide to King Crimson, Vol. 2: 1981-2003. Following in the footsteps of 2004's The 21st Century Guide to King Crimson, Vol. 1: 1969-1974, the second volume combines the best tracks from Crimson's studio albums from the advertised period, as well as mixing in live takes and rarities. When Crimson reconvened in 1980 after an extended hiatus, no one could have predicted that the group would have more in common sonically with Talking Heads and the Police than Yes and Genesis. But with newcomers Adrian Belew (vocals/guitar) and Tony Levin (bass/stick) joining previous Crimson members Robert Fripp (guitar) and Bill Bruford (drums), the "new look" Crimson managed to be quite musically daring without the bloat of '70s-era prog, and in a few instances, managed to be (gasp!) accessible. This point is proven on disc one of Vol. 2: 1981-2003, as highlights are plucked from the group's trio of studio albums from the early '80s: 1981's Discipline, 1982's Beat, and 1984's Three of a Perfect Pair. Also included are several rarities that only hardcore fans will have heard previously: the self-descriptive "King Crimson Barbershop" from 1982 as well as several latter-day tracks off the obscure 2004 EP Happy with What You Have to Be Happy With. Disc two shows early-'80s Crimson flexing their muscles in concert (with the majority of the tracks coming from the 1998 release Absent Lovers: Live in Montreal 1984), while discs three and four focus on the group's mid-'90s to early-21st century period. With the group toughening up its sound and adding a few new members to the Belew/Fripp/Levin/Bruford lineup (before scaling back to a four-piece lineup that saw only Belew and Fripp remain), the band sounds very Tool-esque on the selections from 1995's THRAK, 2000's The ConstruKction of Light, and 2003's The Power to Believe. And as an added bit on the end of disc four, you get a taste of a few Crimson offshoot projects, including ProjeKct One (Bruford, Fripp, Levin, and Trey Gunn) and ProjeKct Two (Belew, Fripp, and Gunn). The 21st Century Guide to King Crimson, Vol. 2: 1981-2003 is best suited for those looking to dig deep into the "Adrian Belew phase" of Crimson. But if you're a longtime fan who already has most of Crimson's studio albums and archival releases, there isn't much here that you probably don't already own.

Disc 1 - In The Studio (1981-1984)
01. Elephant Talk
02. Frame By Frame
03. Matte Kudasai
04. Thela Hun Ginjeet
05. The Sheltering Sky
06. Discipline
07. Heartbeat
08. Waiting Man
09. Neurotica
10. Requiem
11. Three Of A Perfect Pair
12. Sleepless
13. The King Crimson Barbershop
14. Form No.1
15. Bude
16. Potato Pie
17. Clouds
18. Einstein's Relatives

Disc 2 - Live (1982-1984)
01. Entry Of The Crims
02. Larks' Tongues In Aspic, Part 3 (Edit)
03. Thela Hun Gijeet
04. Matte Kudasai
05. The Sheltering Sky
06. Neal And Jack And Me
07. Indiscipline
08. Sartori In Tangier
09. Frame By Frame
10. Man With An Open Heart
11. Waiting Man
12. Sleepless
13. Three Of A Perfect Pair
14. Discipline
15. Elephant Talk

Disc 3 - In The Studio (1995-2003)
01. Vrooom
02. Coda: Marine 475
03. Dinosaur
04. Walking On Air
05. B'Boom
06. Thrak
07. Fearless And Highly THRaKked
08. Sex Sleep Eat Drink Dream
09. Radio II
10. The Power To Believe I: A Cappella
11. Level Five
12. Eyes Wide Open
13. EleKtriK
14. Facts Of Life- Intro
15. Facts Of Life
16. The Power To Believe II
17. Happy With What You Have To Be Happy With
18. The Power To Believe III
19. The Power To Believe IV: Coda

Disc 4 - Live (1994-2003)
01. Vrooom Vrooom
02. Neurotica
03. Prism (Abridged)
04. One Time
05. Larks' Tongues In Aspic, Part IV
06. ProzaKc Blues
07. The ConstruKction Of Light
08. FraKctured
09. The World's My Oyster Soup Kitchen Floor Wax Museum
10. Sus-tayn-Z (ProjeKct Two)
11. X-chayn-jiZ (ProjeKct Two)
12. The Deception Of The Thrush
13. 2 ii 3 (ProjeKct One)

Exact Audio Copy V0.99 prebeta 4 from 23. January 2008

Отчёт EAC об извлечении, выполненном 14. декабря 2009, 18:44

King Crimson / The 21st Century Guide To King Crimson Vol. 2 : 1981 - 2003 - In The Studio:1981-1984 - Disc 1

Дисковод: ASUS DRW-1814BLT Adapter: 2 ID: 0

Режим чтения : Достоверность
Использование точного потока : Да
Отключение кэша аудио : Да
Использование указателей C2 : Нет

Коррекция смещения при чтении : 6
Способность читать области Lead-in и Lead-out : Нет
Заполнение пропущенных сэмплов тишиной : Да
Удаление блоков с тишиной в начале и конце : Нет
При вычислениях CRC использовались нулевые сэмплы : Да
Интерфейс : Установленный внешний ASPI-интерфейс

Выходной формат : Пользовательский кодировщик
Выбранный битрейт : 1024 kBit/s
Качество : Высокий
Добавление ID3-тэга : Нет
Утилита сжатия : C:\Program Files\Exact Audio Copy\FLAC\FLAC.EXE
Дополнительные параметры : -2 -V -T "ARTIST=%a" -T "TITLE=%t" -T "ALBUM=%g" -T "DATE=%y" -T "TRACKNUMBER=%n" -T "GENRE=%m" -T "COMMENT=%e" %s -o %d


TOC извлечённого CD

Трек | Старт | Длительность | Начальный сектор | Конечный сектор
––––––––––––––––––––––––––––––––––-
1 | 0:00.00 | 4:44.23 | 0 | 21322
2 | 4:44.23 | 5:08.18 | 21323 | 44440
3 | 9:52.41 | 3:46.29 | 44441 | 61419
4 | 13:38.70 | 6:26.55 | 61420 | 90424
5 | 20:05.50 | 8:23.22 | 90425 | 128171
6 | 28:28.72 | 5:02.68 | 128172 | 150889
7 | 33:31.65 | 3:54.66 | 150890 | 168505
8 | 37:26.56 | 4:26.64 | 168506 | 188519
9 | 41:53.45 | 4:49.23 | 188520 | 210217
10 | 46:42.68 | 6:36.22 | 210218 | 239939
11 | 53:19.15 | 4:10.07 | 239940 | 258696
12 | 57:29.22 | 5:24.42 | 258697 | 283038
13 | 62:53.64 | 1:36.20 | 283039 | 290258
14 | 64:30.09 | 3:03.42 | 290259 | 304025
15 | 67:33.51 | 0:25.20 | 304026 | 305920
16 | 67:58.71 | 4:33.66 | 305921 | 326461
17 | 72:32.62 | 0:31.34 | 326462 | 328820
18 | 73:04.21 | 3:08.27 | 328821 | 342947


Характеристики диапазона извлечения и сообщения об ошибках

Выбранный диапазон

Имя файла D:\Torrent\IN\King Crimson - The 21st Century Guide To King Crimson Vol. 2 1981 - 2003 - In The Studio 1981-1984 - Disc 1.wav

Пиковый уровень 100.0 %
Качество диапазона 99.9 %
CRC теста 9884303F
CRC копии 9884303F
Копирование… OK

Ошибок не произошло

Конец отчёта

––––––––––––––––––––––––

Exact Audio Copy V0.99 prebeta 4 from 23. January 2008

Отчёт EAC об извлечении, выполненном 14. декабря 2009, 20:13

King Crimson / The 21st Century Guide To King Crimson Volume 2 : 1981 - 2003 - Live:1982-1984 - Disc 2

Дисковод: ASUS DRW-1814BLT Adapter: 2 ID: 0

Режим чтения : Достоверность
Использование точного потока : Да
Отключение кэша аудио : Да
Использование указателей C2 : Нет

Коррекция смещения при чтении : 6
Способность читать области Lead-in и Lead-out : Нет
Заполнение пропущенных сэмплов тишиной : Да
Удаление блоков с тишиной в начале и конце : Нет
При вычислениях CRC использовались нулевые сэмплы : Да
Интерфейс : Установленный внешний ASPI-интерфейс

Выходной формат : Пользовательский кодировщик
Выбранный битрейт : 1024 kBit/s
Качество : Высокий
Добавление ID3-тэга : Нет
Утилита сжатия : C:\Program Files\Exact Audio Copy\FLAC\FLAC.EXE
Дополнительные параметры : -2 -V -T "ARTIST=%a" -T "TITLE=%t" -T "ALBUM=%g" -T "DATE=%y" -T "TRACKNUMBER=%n" -T "GENRE=%m" -T "COMMENT=%e" %s -o %d


TOC извлечённого CD

Трек | Старт | Длительность | Начальный сектор | Конечный сектор
––––––––––––––––––––––––––––––––––-
1 | 0:00.00 | 4:42.34 | 0 | 21183
2 | 4:42.34 | 2:47.69 | 21184 | 33777
3 | 7:30.28 | 5:54.45 | 33778 | 60372
4 | 13:24.73 | 3:40.32 | 60373 | 76904
5 | 17:05.30 | 10:32.27 | 76905 | 124331
6 | 27:37.57 | 5:39.43 | 124332 | 149799
7 | 33:17.25 | 8:10.28 | 149800 | 186577
8 | 41:27.53 | 4:21.45 | 186578 | 206197
9 | 45:49.23 | 3:55.40 | 206198 | 223862
10 | 49:44.63 | 3:40.72 | 223863 | 240434
11 | 53:25.60 | 6:00.00 | 240435 | 267434
12 | 59:25.60 | 6:11.27 | 267435 | 295286
13 | 65:37.12 | 4:24.00 | 295287 | 315086
14 | 70:01.12 | 4:52.72 | 315087 | 337058
15 | 74:54.09 | 5:02.10 | 337059 | 359718


Характеристики диапазона извлечения и сообщения об ошибках

Выбранный диапазон

Имя файла D:\Torrent\IN\King Crimson_The 21st Century Guide To…Vol.Two(1981-2003)\CD2.Live 1982-1984\King Crimson - The 21st Century Guide To King Crimson Volume 2 1981 - 2003 - Live 1982-1984 - Disc 2.wav

Пиковый уровень 100.0 %
Качество диапазона 100.0 %
CRC теста EEE6DD72
CRC копии EEE6DD72
Копирование… OK

Ошибок не произошло

Конец отчёта

––––––––––––––––––––––––

Exact Audio Copy V0.99 prebeta 4 from 23. January 2008

Отчёт EAC об извлечении, выполненном 14. декабря 2009, 22:27

King Crimson / The 21st Century Guide To King Crimson Volume 2 : 1981 - 2003 In The Studio:1995-2003 - Disc 3

Дисковод: ASUS DRW-1814BLT Adapter: 2 ID: 0

Режим чтения : Достоверность
Использование точного потока : Да
Отключение кэша аудио : Да
Использование указателей C2 : Нет

Коррекция смещения при чтении : 6
Способность читать области Lead-in и Lead-out : Нет
Заполнение пропущенных сэмплов тишиной : Да
Удаление блоков с тишиной в начале и конце : Нет
При вычислениях CRC использовались нулевые сэмплы : Да
Интерфейс : Установленный внешний ASPI-интерфейс

Выходной формат : Пользовательский кодировщик
Выбранный битрейт : 1024 kBit/s
Качество : Высокий
Добавление ID3-тэга : Нет
Утилита сжатия : C:\Program Files\Exact Audio Copy\FLAC\FLAC.EXE
Дополнительные параметры : -2 -V -T "ARTIST=%a" -T "TITLE=%t" -T "ALBUM=%g" -T "DATE=%y" -T "TRACKNUMBER=%n" -T "GENRE=%m" -T "COMMENT=%e" %s -o %d


TOC извлечённого CD

Трек | Старт | Длительность | Начальный сектор | Конечный сектор
––––––––––––––––––––––––––––––––––-
1 | 0:00.00 | 4:38.64 | 0 | 20913
2 | 4:38.64 | 2:41.53 | 20914 | 33041
3 | 7:20.42 | 6:37.29 | 33042 | 62845
4 | 13:57.71 | 4:38.23 | 62846 | 83718
5 | 18:36.19 | 4:11.41 | 83719 | 102584
6 | 22:47.60 | 0:43.63 | 102585 | 105872
7 | 23:31.48 | 3:50.37 | 105873 | 123159
8 | 27:22.10 | 4:44.48 | 123160 | 144507
9 | 32:06.58 | 0:43.35 | 144508 | 147767
10 | 32:50.18 | 0:43.16 | 147768 | 151008
11 | 33:33.34 | 7:15.31 | 151009 | 183664
12 | 40:48.65 | 4:10.08 | 183665 | 202422
13 | 44:58.73 | 8:00.28 | 202423 | 238450
14 | 52:59.26 | 1:38.70 | 238451 | 245870
15 | 54:38.21 | 5:05.24 | 245871 | 268769
16 | 59:43.45 | 7:44.55 | 268770 | 303624
17 | 67:28.25 | 3:30.54 | 303625 | 319428
18 | 70:59.04 | 4:12.04 | 319429 | 338332
19 | 75:11.08 | 2:26.65 | 338333 | 349347


Характеристики диапазона извлечения и сообщения об ошибках

Выбранный диапазон

Имя файла D:\Torrent\OUT\King Crimson_The 21st Century Guide To…Vol.Two(1981-2003)\CD3.In The Studio 1995-2003\King Crimson - The 21st Century Guide To King Crimson Volume 2 1981 - 2003 In The Studio 1995-2003 - Disc 3.wav

Пиковый уровень 100.0 %
Качество диапазона 99.9 %
CRC теста DDF7522A
CRC копии DDF7522A
Копирование… OK

Ошибок не произошло

Конец отчёта

–––––––––––––––––––––––-

Exact Audio Copy V0.99 prebeta 4 from 23. January 2008

Отчёт EAC об извлечении, выполненном 14. декабря 2009, 21:20

King Crimson / The 21st Century Guide to King Crimson,Vol.2 (CD4)

Дисковод: ASUS DRW-1814BLT Adapter: 2 ID: 0

Режим чтения : Достоверность
Использование точного потока : Да
Отключение кэша аудио : Да
Использование указателей C2 : Нет

Коррекция смещения при чтении : 6
Способность читать области Lead-in и Lead-out : Нет
Заполнение пропущенных сэмплов тишиной : Да
Удаление блоков с тишиной в начале и конце : Нет
При вычислениях CRC использовались нулевые сэмплы : Да
Интерфейс : Установленный внешний ASPI-интерфейс

Выходной формат : Пользовательский кодировщик
Выбранный битрейт : 1024 kBit/s
Качество : Высокий
Добавление ID3-тэга : Нет
Утилита сжатия : C:\Program Files\Exact Audio Copy\FLAC\FLAC.EXE
Дополнительные параметры : -2 -V -T "ARTIST=%a" -T "TITLE=%t" -T "ALBUM=%g" -T "DATE=%y" -T "TRACKNUMBER=%n" -T "GENRE=%m" -T "COMMENT=%e" %s -o %d


TOC извлечённого CD

Трек | Старт | Длительность | Начальный сектор | Конечный сектор
––––––––––––––––––––––––––––––––––-
1 | 0:00.00 | 5:03.48 | 0 | 22772
2 | 5:03.48 | 3:39.73 | 22773 | 39270
3 | 8:43.46 | 2:54.29 | 39271 | 52349
4 | 11:38.00 | 6:53.18 | 52350 | 83342
5 | 18:31.18 | 10:47.04 | 83343 | 131871
6 | 29:18.22 | 5:28.04 | 131872 | 156475
7 | 34:46.26 | 8:39.57 | 156476 | 195457
8 | 43:26.08 | 8:38.33 | 195458 | 234340
9 | 52:04.41 | 5:50.33 | 234341 | 260623
10 | 57:54.74 | 7:51.07 | 260624 | 295955
11 | 65:46.06 | 4:18.53 | 295956 | 315358
12 | 70:04.59 | 5:20.04 | 315359 | 339362
13 | 75:24.63 | 1:57.15 | 339363 | 348152


Характеристики диапазона извлечения и сообщения об ошибках

Выбранный диапазон

Имя файла D:\Torrent\OUT\King Crimson_The 21st Century Guide To…Vol.Two(1981-2003)\CD4.Live 1994-2003\King Crimson - The 21st Century Guide to King Crimson,Vol.2 (CD4).wav

Пиковый уровень 100.0 %
Качество диапазона 100.0 %
CRC теста D72DAEC3
CRC копии D72DAEC3
Копирование… OK

Ошибок не произошло

Конец отчёта


Thanks to Mammonth66!