Subcategories

King Crimson - The 21st Century Guide To King Crimson: Volume One [4CD Box Set '2004] *RE-UP

Posted By: perfecta
King Crimson - The 21st Century Guide To King Crimson: Volume One [4CD Box Set '2004] *RE-UP

King Crimson - The 21st Century Guide To King Crimson: Vol.1 [4CD Box Set '2004]
EAC Rips | FLAC Images with CUEs & LOGs - 1,9 GB | Full Scans | MP3 CBR 320 Kbps - 705 MB
Progressive Rock | TT - 308:20 minutes | Label: Discipline Global Mobile | Cat. # DGM 0403-CD1~4

This set compiles what Robert Fripp contends is "a comprehensive overview for new ears of all that is necessary in the Crimson corpus". Going on to acknowledge that "old-generation completists might disagree with some choices, but material not included here is available for new-generation completists, should they wish".

King Crimson - The 21st Century Guide To King Crimson: Volume One [4CD Box Set '2004] *RE-UP

allmusic.com says: Enthusiasts' personal preferences aside, The 21st Century Guide to King Crimson, Vol. 1: 1969-1974 (2004) is the first of two four-disc volumes gathering the entire recorded output of the band in its variety of personnel. Each CD contains highlights from a specific era, either in the studio or live, and the material is presented in chronological order. Disc one tracks through In the Court of the Crimson King (1969), In the Wake of Poseidon (1970), Lizard (1970), and Islands (1971). Suitably, most of the debut effort is presented from recently recovered master tapes that had been unavailable for all prior pressings of the CD. Other truncated titles are the instrumental edits of the tracks "In the Wake of Poseidon" and "Islands," as well as an abridged version of "Sailor's Tale." Disc two offers a concert counterpart with ten selections from each of the touring incarnations of King Crimson circa 1969-1972. Among the standouts are a hard-driving cover of Donovan's "Get Thy Bearings," the rave-up "Groon," and an instrumental edit of "21st Century Schizoid Man" – the latter pairing from February 11, 1972. Disc three houses cuts from Larks' Tongues in Aspic (1973), Starless and Bible Black (1974), and Red (1974), with abridged readings of "Larks' Tongues in Aspic, Pt. 1" and "Starless" being the only comparative anomalies. Disc four concludes the collection in epic fashion with what is hands-down the most compelling aggregate of performances ever assembled from the 1973-1974 lineup. The vast majority of the USA (1975) album is featured, with the notable exception of a slightly abridged "Exiles." Additionally, "Improv: Augsburg" is the sole inclusion to be previously unreleased and is excerpted from a March 27, 1974, show. The 24-page booklet has plenty of eye candy and visual ephemera surrounding a detailed chronology and discography of the band through its breakup in 1974.

Disc 1 - In The Studio (1969-1971)
01. 21st Century Schizoid Man
02. I Talk To The Wind
03. Epitaph
04. Moonchild
05. The Court Of The Crimson King
06. Peace (A Theme)
07. Cat Food
08. Groon
09. Cadence And Cascade
10. In The Wake Of Poseidon
11. Ladies Of The Road
12. Sailor's Tale
13. Islands
14. Tuning Up
15. Bolero

Disc 2 - Live (1969-1972)
01. The Court Of The Crimson King
02. A Man, A City
03. 21st Century Schizoid Man
04. Get Thy Bearings
05. Mars
06. Pictures Of A City
07. The Letters
08. The Sailor's Tale
09. Groon
10. 21st Century Schizoid Man

Disc 3 - In The Studio (1972-1974)
01. Larks' Tongues In Aspic, Part I (Abridged)
02. Book Of Saturday
03. Easy Money
04. Larks' Tongues In Aspic, Part II
05. The Night Watch
06. The Great Deciever
07. Fracture
08. Starless (Abridged)
09. Red
10. Fallen Angel
11. One More Red Nightmare

Disc 4 - Live (1973-1974)
01. Asbury Park (6-28-74)
02. The Talking Drum (4-29-74)
03. Larks' Tongues In Aspic, Part II (6-28-74)
04. Lament (6-28-74)
05. We'll Let You Know (10-23-73)
06. Exiles (6-28-74 - abridged)
07. Easy Money (6-28 - 6-30-74)
08. Providence (6-30-74)
09. Starless And Bible Black (11-23-73)
10. 21st Century Schizoid Man (6-30-74)
11. Trio (11-13-73)

Exact Audio Copy V0.99 prebeta 4 from 23. January 2008

Отчёт EAC об извлечении, выполненном 12. декабря 2009, 17:50

King Crimson / The 21st Century Guide to Vol.One 1969-1974 (CD1)

Дисковод: ASUS DRW-1814BLT Adapter: 2 ID: 0

Режим чтения : Достоверность
Использование точного потока : Да
Отключение кэша аудио : Да
Использование указателей C2 : Нет

Коррекция смещения при чтении : 6
Способность читать области Lead-in и Lead-out : Нет
Заполнение пропущенных сэмплов тишиной : Да
Удаление блоков с тишиной в начале и конце : Нет
При вычислениях CRC использовались нулевые сэмплы : Да
Интерфейс : Установленный внешний ASPI-интерфейс

Выходной формат : Пользовательский кодировщик
Выбранный битрейт : 1024 kBit/s
Качество : Высокий
Добавление ID3-тэга : Нет
Утилита сжатия : C:\Program Files\Exact Audio Copy\FLAC\FLAC.EXE
Дополнительные параметры : -2 -V -T "ARTIST=%a" -T "TITLE=%t" -T "ALBUM=%g" -T "DATE=%y" -T "TRACKNUMBER=%n" -T "GENRE=%m" -T "COMMENT=%e" %s -o %d


TOC извлечённого CD

Трек | Старт | Длительность | Начальный сектор | Конечный сектор
––––––––––––––––––––––––––––––––––-
1 | 0:00.00 | 7:24.08 | 0 | 33307
2 | 7:24.08 | 6:05.12 | 33308 | 60694
3 | 13:29.20 | 8:47.46 | 60695 | 100265
4 | 22:16.66 | 3:37.52 | 100266 | 116592
5 | 25:54.43 | 9:27.71 | 116593 | 159188
6 | 35:22.39 | 1:14.72 | 159189 | 164810
7 | 36:37.36 | 4:52.24 | 164811 | 186734
8 | 41:29.60 | 3:32.13 | 186735 | 202647
9 | 45:01.73 | 4:37.56 | 202648 | 223478
10 | 49:39.54 | 4:02.56 | 223479 | 241684
11 | 53:42.35 | 5:30.26 | 241685 | 266460
12 | 59:12.61 | 7:19.25 | 266461 | 299410
13 | 66:32.11 | 5:30.49 | 299411 | 324209
14 | 72:02.60 | 0:49.12 | 324210 | 327896
15 | 72:51.72 | 6:24.52 | 327897 | 356748


Характеристики диапазона извлечения и сообщения об ошибках

Выбранный диапазон

Имя файла D:\Torrent\OUT\King Crimson_The 21st Century Guide To…Vol.One(1969-1974)\CD1.In The Studio 1969-1971\King Crimson - The 21st Century Guide to Vol.One 1969-1974 (CD1).wav



Пиковый уровень 100.0 %
Качество диапазона 99.9 %
CRC теста 35F9576A
CRC копии 35F9576A
Копирование завершено

Ошибок не произошло

Конец отчёта

––––––––––––––––––––––––––––––––

Exact Audio Copy V0.99 prebeta 4 from 23. January 2008

Отчёт EAC об извлечении, выполненном 12. декабря 2009, 13:35

King Crimson / The 21st Century Guide to…Vol1(CD2)

Дисковод: PLEXTOR DVDR PX-755A Adapter: 1 ID: 0

Режим чтения : Достоверность
Использование точного потока : Да
Отключение кэша аудио : Да
Использование указателей C2 : Нет

Коррекция смещения при чтении : 30
Способность читать области Lead-in и Lead-out : Нет
Заполнение пропущенных сэмплов тишиной : Да
Удаление блоков с тишиной в начале и конце : Нет
При вычислениях CRC использовались нулевые сэмплы : Да
Интерфейс : Установленный внешний ASPI-интерфейс

Выходной формат : Пользовательский кодировщик
Выбранный битрейт : 1024 kBit/s
Качество : Высокий
Добавление ID3-тэга : Нет
Утилита сжатия : C:\Program Files\Exact Audio Copy\FLAC\FLAC.EXE
Дополнительные параметры : -2 -V -T "ARTIST=%a" -T "TITLE=%t" -T "ALBUM=%g" -T "DATE=%y" -T "TRACKNUMBER=%n" -T "GENRE=%m" -T "COMMENT=%e" %s -o %d


TOC извлечённого CD

Трек | Старт | Длительность | Начальный сектор | Конечный сектор
––––––––––––––––––––––––––––––––––-
1 | 0:00.00 | 6:55.09 | 0 | 31133
2 | 6:55.09 | 12:10.18 | 31134 | 85901
3 | 19:05.27 | 7:30.41 | 85902 | 119692
4 | 26:35.68 | 10:53.51 | 119693 | 168718
5 | 37:29.44 | 6:41.32 | 168719 | 198825
6 | 44:11.01 | 8:44.50 | 198826 | 238175
7 | 52:55.51 | 4:28.51 | 238176 | 258326
8 | 57:24.27 | 4:49.17 | 258327 | 280018
9 | 62:13.44 | 6:44.28 | 280019 | 310346
10 | 68:57.72 | 9:47.05 | 310347 | 354376


Характеристики диапазона извлечения и сообщения об ошибках

Выбранный диапазон

Имя файла D:\Torrent\OUT\King Crimson_The 21st Century Guide To…Vol.One(1969-1974)\1_2\King Crimson - The 21st Century Guide to…Vol1(CD2).wav

Пиковый уровень 100.0 %
Качество диапазона 100.0 %
CRC теста EEA1C161
CRC копии EEA1C161
Копирование… OK

Ошибок не произошло

Конец отчёта

––––––––––––––––––––––––––––––

Exact Audio Copy V0.99 prebeta 4 from 23. January 2008

Отчёт EAC об извлечении, выполненном 12. декабря 2009, 23:34

King Crimson / The 21st Century Guide to… Vol.One(CD3)

Дисковод: ASUS DRW-1814BLT Adapter: 2 ID: 0

Режим чтения : Достоверность
Использование точного потока : Да
Отключение кэша аудио : Да
Использование указателей C2 : Нет

Коррекция смещения при чтении : 6
Способность читать области Lead-in и Lead-out : Нет
Заполнение пропущенных сэмплов тишиной : Да
Удаление блоков с тишиной в начале и конце : Нет
При вычислениях CRC использовались нулевые сэмплы : Да
Интерфейс : Установленный внешний ASPI-интерфейс

Выходной формат : Пользовательский кодировщик
Выбранный битрейт : 1024 kBit/s
Качество : Высокий
Добавление ID3-тэга : Нет
Утилита сжатия : C:\Program Files\Exact Audio Copy\FLAC\FLAC.EXE
Дополнительные параметры : -2 -V -T "ARTIST=%a" -T "TITLE=%t" -T "ALBUM=%g" -T "DATE=%y" -T "TRACKNUMBER=%n" -T "GENRE=%m" -T "COMMENT=%e" %s -o %d


TOC извлечённого CD

Трек | Старт | Длительность | Начальный сектор | Конечный сектор
––––––––––––––––––––––––––––––––––-
1 | 0:00.00 | 10:46.35 | 0 | 48484
2 | 10:46.35 | 2:51.61 | 48485 | 61370
3 | 13:38.21 | 8:01.15 | 61371 | 97460
4 | 21:39.36 | 7:11.62 | 97461 | 129847
5 | 28:51.23 | 4:41.14 | 129848 | 150936
6 | 33:32.37 | 4:02.21 | 150937 | 169107
7 | 37:34.58 | 11:12.12 | 169108 | 219519
8 | 48:46.70 | 4:36.32 | 219520 | 240251
9 | 53:23.27 | 6:15.53 | 240252 | 268429
10 | 59:39.05 | 6:03.23 | 268430 | 295677
11 | 65:42.28 | 7:06.72 | 295678 | 327699


Характеристики диапазона извлечения и сообщения об ошибках

Выбранный диапазон

Имя файла D:\Torrent\OUT\King Crimson_The 21st Century Guide To…Vol.One(1969-1974)\1_3\King Crimson - The 21st Century Guide to… Vol.One(CD3).wav

Пиковый уровень 98.8 %
Качество диапазона 100.0 %
CRC теста 15D4D704
CRC копии 15D4D704
Копирование… OK

Ошибок не произошло

Конец отчёта

––––––––––––––––––––––––-

Exact Audio Copy V0.99 prebeta 4 from 23. January 2008

Отчёт EAC об извлечении, выполненном 12. декабря 2009, 22:56

King Crimson / The 21st Century Guide to… Vol.One(CD4)

Дисковод: ASUS DRW-1814BLT Adapter: 2 ID: 0

Режим чтения : Достоверность
Использование точного потока : Да
Отключение кэша аудио : Да
Использование указателей C2 : Нет

Коррекция смещения при чтении : 6
Способность читать области Lead-in и Lead-out : Нет
Заполнение пропущенных сэмплов тишиной : Да
Удаление блоков с тишиной в начале и конце : Нет
При вычислениях CRC использовались нулевые сэмплы : Да
Интерфейс : Установленный внешний ASPI-интерфейс

Выходной формат : Пользовательский кодировщик
Выбранный битрейт : 1024 kBit/s
Качество : Высокий
Добавление ID3-тэга : Нет
Утилита сжатия : C:\Program Files\Exact Audio Copy\FLAC\FLAC.EXE
Дополнительные параметры : -2 -V -T "ARTIST=%a" -T "TITLE=%t" -T "ALBUM=%g" -T "DATE=%y" -T "TRACKNUMBER=%n" -T "GENRE=%m" -T "COMMENT=%e" %s -o %d


TOC извлечённого CD

Трек | Старт | Длительность | Начальный сектор | Конечный сектор
––––––––––––––––––––––––––––––––––-
1 | 0:00.00 | 7:00.00 | 0 | 31499
2 | 7:00.00 | 5:45.50 | 31500 | 57424
3 | 12:45.50 | 6:29.12 | 57425 | 86611
4 | 19:14.62 | 4:18.37 | 86612 | 105998
5 | 23:33.24 | 5:22.00 | 105999 | 130148
6 | 28:55.24 | 5:52.16 | 130149 | 156564
7 | 34:47.40 | 9:12.13 | 156565 | 197977
8 | 43:59.53 | 10:01.37 | 197978 | 243089
9 | 54:01.15 | 9:22.43 | 243090 | 285282
10 | 63:23.58 | 8:16.05 | 285283 | 322487
11 | 71:39.63 | 5:49.09 | 322488 | 348671


Характеристики диапазона извлечения и сообщения об ошибках

Выбранный диапазон

Имя файла D:\Torrent\OUT\King Crimson_The 21st Century Guide To…Vol.One(1969-1974)\King Crimson - The 21st Century Guide to… Vol.One(CD4).wav

Пиковый уровень 99.9 %
Качество диапазона 100.0 %
CRC теста E5493E20
CRC копии E5493E20
Копирование… OK

Ошибок не произошло

Конец отчёта


Thanks to Mammonth66!