Subcategories

Kitsos Harisiadis - Lament in a Deep Style 1929-1931 (2018)

Posted By: aasana
Kitsos Harisiadis - Lament in a Deep Style 1929-1931 (2018)

Kitsos Harisiadis - Lament in a Deep Style 1929-1931 (2018)
EAC Rip | FLAC (tracks+.cue+.log) | 43:46 min | 188 MB
Greek folk, World | Label: Third Man Records

Lament In A Deep Style 1929 – 1931 is a new release from Jack White’s Third Man Records which shines the light on Greek folk musician and clarinetist Kitsos Harisiadis. The release is a follow up to Why the Mountains Are Black, a two-disc collection of primal and unhinged Greek village music covering 1907-1960 that was released in 2016.
For this release, they again enlisted the help of 78 collector Christopher King who has dedicated years to research, fieldwork and collecting. King is a Grammy-winning producer, sound-engineer, curator and writer. The artwork is, like the last release, from the unmistakable hand of R. Crumband designed by Grammy-winning Susan Archie. Take a listen to the track Skaros below, transformative music.
From 1929 through 1931, Harisiadis recorded instrumentals that have endured in the Epirotic repertoire well into the twenty-first century. Kitsos plays all fourteen pieces as if he were a Greek-Shaolin monk conversing with a grasshopper at his feet.
Through King’s meticulously thorough research and immersive storytelling, the listener is able to fully absorb the otherworldly aura that radiates throughout the release.
Painstakingly remastered directly from ungodly rare original 78 rpm discs and coupled with artwork by R. Crumb and design by Grammy Award-winner Susan Archie, the entire package is delightful in every sense.​​​​​​​

Tracklist:
01. Skaros
02. Dipli Gaida
03. Zagorisio
04. Gekas Epirotiko
05. Frasha
06. Delvino Kai Tsamourgia
07. Mirologi In Do
08. Skaros Epirotiko
09. Gaida
10. Verginada
11. Arvanitiko
12. Potamia
13. Stroto Pogonisio
14. Mirologi Arvantiko

Exact Audio Copy V1.3 from 2. September 2016

EAC extraction logfile from 24. April 2019, 16:24

Kitsos Harisiadis / Lament In A Deep Style 1929-1931

Used drive : MATSHITADVD-RAM UJ8E2 Adapter: 1 ID: 0

Read mode : Secure
Utilize accurate stream : Yes
Defeat audio cache : Yes
Make use of C2 pointers : No

Read offset correction : 103
Overread into Lead-In and Lead-Out : No
Fill up missing offset samples with silence : Yes
Delete leading and trailing silent blocks : No
Null samples used in CRC calculations : Yes
Used interface : Native Win32 interface for Win NT & 2000
Gap handling : Appended to previous track

Used output format : User Defined Encoder
Selected bitrate : 1024 kBit/s
Quality : High
Add ID3 tag : No
Command line compressor : C:\Program Files (x86)\Exact Audio Copy\Flac\flac.exe
Additional command line options : -8 -V -T "ARTIST=%artist%" -T "TITLE=%title%" -T "ALBUM=%albumtitle%" -T "DATE=%year%" -T "TRACKNUMBER=%tracknr%" -T "GENRE=%genre%" -T "PERFORMER=%albuminterpret%" -T "COMPOSER=%composer%" %haslyrics%–tag-from-file=LYRICS="%lyricsfile%"%haslyrics% -T "ALBUMARTIST=%albumartist%" -T "DISCNUMBER=%cdnumber%" -T "TOTALDISCS=%totalcds%" -T "TOTALTRACKS=%numtracks%" -T "COMMENT=%comment%" %source% -o %dest%


TOC of the extracted CD

Track | Start | Length | Start sector | End sector
––––––––––––––––––––––––––––-
1 | 0:00.00 | 3:12.43 | 0 | 14442
2 | 3:12.43 | 3:07.07 | 14443 | 28474
3 | 6:19.50 | 3:12.40 | 28475 | 42914
4 | 9:32.15 | 3:03.07 | 42915 | 56646
5 | 12:35.22 | 2:53.32 | 56647 | 69653
6 | 15:28.54 | 3:15.44 | 69654 | 84322
7 | 18:44.23 | 3:08.07 | 84323 | 98429
8 | 21:52.30 | 3:05.71 | 98430 | 112375
9 | 24:58.26 | 3:13.02 | 112376 | 126852
10 | 28:11.28 | 3:11.39 | 126853 | 141216
11 | 31:22.67 | 3:04.21 | 141217 | 155037
12 | 34:27.13 | 3:08.38 | 155038 | 169175
13 | 37:35.51 | 3:04.14 | 169176 | 182989
14 | 40:39.65 | 3:06.22 | 182990 | 196961


Track 1

Filename C:\EAC Rips\Kitsos Harisiadis (2018) Lament In A Deep Style 1929-1931 [FLAC] {TMR 479}\ 01 - Skaros.wav

Pre-gap length 0:00:02.00

Peak level 89.1 %
Extraction speed 1.6 X
Track quality 99.9 %
Test CRC 4D7C5C73
Copy CRC 4D7C5C73
Accurately ripped (confidence 2) [B4AEBB7C] (AR v2)
Copy OK

Track 2

Filename C:\EAC Rips\Kitsos Harisiadis (2018) Lament In A Deep Style 1929-1931 [FLAC] {TMR 479}\ 02 - Dipli Gaida.wav

Peak level 89.1 %
Extraction speed 2.5 X
Track quality 100.0 %
Test CRC E6EA245C
Copy CRC E6EA245C
Accurately ripped (confidence 2) [996A72F6] (AR v2)
Copy OK

Track 3

Filename C:\EAC Rips\Kitsos Harisiadis (2018) Lament In A Deep Style 1929-1931 [FLAC] {TMR 479}\ 03 - Zagorisio.wav

Peak level 89.1 %
Extraction speed 1.9 X
Track quality 99.9 %
Test CRC 4CCFF520
Copy CRC 4CCFF520
Accurately ripped (confidence 2) [0C9431C6] (AR v2)
Copy OK

Track 4

Filename C:\EAC Rips\Kitsos Harisiadis (2018) Lament In A Deep Style 1929-1931 [FLAC] {TMR 479}\ 04 - Gekas Epirotiko.wav

Peak level 89.1 %
Extraction speed 2.8 X
Track quality 100.0 %
Test CRC E46BD22E
Copy CRC E46BD22E
Accurately ripped (confidence 2) [DF20A4D8] (AR v2)
Copy OK

Track 5

Filename C:\EAC Rips\Kitsos Harisiadis (2018) Lament In A Deep Style 1929-1931 [FLAC] {TMR 479}\ 05 - Frasha.wav

Peak level 93.1 %
Extraction speed 2.9 X
Track quality 100.0 %
Test CRC 9D7A193D
Copy CRC 9D7A193D
Accurately ripped (confidence 2) [7B575DB0] (AR v2)
Copy OK

Track 6

Filename C:\EAC Rips\Kitsos Harisiadis (2018) Lament In A Deep Style 1929-1931 [FLAC] {TMR 479}\ 06 - Delvino Kai Tsamourgia.wav

Peak level 89.1 %
Extraction speed 3.2 X
Track quality 100.0 %
Test CRC 37DD627E
Copy CRC 37DD627E
Accurately ripped (confidence 2) [2021839A] (AR v2)
Copy OK

Track 7

Filename C:\EAC Rips\Kitsos Harisiadis (2018) Lament In A Deep Style 1929-1931 [FLAC] {TMR 479}\ 07 - Mirologi In Do.wav

Peak level 89.1 %
Extraction speed 3.2 X
Track quality 100.0 %
Test CRC 7E84721A
Copy CRC 7E84721A
Accurately ripped (confidence 2) [0848F9A1] (AR v2)
Copy OK

Track 8

Filename C:\EAC Rips\Kitsos Harisiadis (2018) Lament In A Deep Style 1929-1931 [FLAC] {TMR 479}\ 08 - Skaros Epirotiko.wav

Peak level 89.1 %
Extraction speed 3.5 X
Track quality 100.0 %
Test CRC 87590F7E
Copy CRC 87590F7E
Accurately ripped (confidence 2) [A18B6D75] (AR v2)
Copy OK

Track 9

Filename C:\EAC Rips\Kitsos Harisiadis (2018) Lament In A Deep Style 1929-1931 [FLAC] {TMR 479}\ 09 - Gaida.wav

Peak level 89.1 %
Extraction speed 3.5 X
Track quality 100.0 %
Test CRC 5B16357C
Copy CRC 5B16357C
Accurately ripped (confidence 2) [140FD643] (AR v2)
Copy OK

Track 10

Filename C:\EAC Rips\Kitsos Harisiadis (2018) Lament In A Deep Style 1929-1931 [FLAC] {TMR 479}\ 10 - Verginada.wav

Peak level 89.1 %
Extraction speed 3.6 X
Track quality 100.0 %
Test CRC 341583D8
Copy CRC 341583D8
Accurately ripped (confidence 2) [721B844C] (AR v2)
Copy OK

Track 11

Filename C:\EAC Rips\Kitsos Harisiadis (2018) Lament In A Deep Style 1929-1931 [FLAC] {TMR 479}\ 11 - Arvanitiko.wav

Peak level 89.1 %
Extraction speed 2.7 X
Track quality 99.9 %
Test CRC ECDC3101
Copy CRC ECDC3101
Accurately ripped (confidence 2) [C42FC02C] (AR v2)
Copy OK

Track 12

Filename C:\EAC Rips\Kitsos Harisiadis (2018) Lament In A Deep Style 1929-1931 [FLAC] {TMR 479}\ 12 - Potamia.wav

Peak level 89.1 %
Extraction speed 3.9 X
Track quality 100.0 %
Test CRC 453CB69D
Copy CRC 453CB69D
Accurately ripped (confidence 2) [F81333F8] (AR v2)
Copy OK

Track 13

Filename C:\EAC Rips\Kitsos Harisiadis (2018) Lament In A Deep Style 1929-1931 [FLAC] {TMR 479}\ 13 - Stroto Pogonisio.wav

Peak level 92.1 %
Extraction speed 4.0 X
Track quality 100.0 %
Test CRC 60301338
Copy CRC 60301338
Accurately ripped (confidence 2) [BBBD9000] (AR v2)
Copy OK

Track 14

Filename C:\EAC Rips\Kitsos Harisiadis (2018) Lament In A Deep Style 1929-1931 [FLAC] {TMR 479}\ 14 - Mirologi Arvanitiko.wav

Peak level 89.1 %
Extraction speed 2.9 X
Track quality 99.9 %
Test CRC B59A6DC0
Copy CRC B59A6DC0
Accurately ripped (confidence 2) [C75FABAC] (AR v2)
Copy OK


All tracks accurately ripped

No errors occurred

End of status report

–– CUETools DB Plugin V2.1.6

[CTDB TOCID: fBJvzZBX3kfVgtsMjnUVlSDP4bs-] found
Submit result: fBJvzZBX3kfVgtsMjnUVlSDP4bs- has been confirmed
Track | CTDB Status
1 | (3/3) Accurately ripped
2 | (3/3) Accurately ripped
3 | (3/3) Accurately ripped
4 | (3/3) Accurately ripped
5 | (3/3) Accurately ripped
6 | (3/3) Accurately ripped
7 | (3/3) Accurately ripped
8 | (3/3) Accurately ripped
9 | (3/3) Accurately ripped
10 | (3/3) Accurately ripped
11 | (3/3) Accurately ripped
12 | (3/3) Accurately ripped
13 | (3/3) Accurately ripped
14 | (3/3) Accurately ripped


==== Log checksum D97DE8146AFDBF24BC97B859819D2BA3F49C5543CC50AB4D20B0358B9D5DB36D ====