Subcategories

Kleinstück - Deutsche Volkslieder 13.-17. Jahrhunderts [Ars Musici AME 3029-2] (1997)

Posted By: luckburz
Kleinstück - Deutsche Volkslieder 13.-17. Jahrhunderts [Ars Musici AME 3029-2] (1997)

Christopher Kleinstück - "Ach liebes Elselein": Deutsche Volkslieder des 13.-17. Jahrhunderts
Christopher Kleinstück - "Ach liebes Elselein": German Folk Songs Of The 13.-17. Century
EAC+LOG+CUE | FLAC: 191 MB | Full Artwork | 5% Recovery Info
Label/Cat#: Ars Musici # AME 3029-2 | Country/Year: Germany 1997
Genre: Classical, Folk | Style: Folk, Medieval, Renaissance

MD5 [X] CUE [X] LOG [X] INFO TEXT [X] ARTWORK [X]

selfrip [X] not my rip []

Kleinstück - Deutsche Volkslieder 13.-17. Jahrhunderts [Ars Musici AME 3029-2] (1997)


Exact Audio Copy V1.0 beta 3 from 29. August 2011

EAC extraction logfile from 12. September 2012, 16:30

Christopher Kleinstück / Deutsche Volkslieder 13.-17. Jahrhunderts

Used drive : PIONEER BD-RW BDR-206 Adapter: 0 ID: 2

Read mode : Secure
Utilize accurate stream : Yes
Defeat audio cache : Yes
Make use of C2 pointers : No

Read offset correction : 667
Overread into Lead-In and Lead-Out : No
Fill up missing offset samples with silence : Yes
Delete leading and trailing silent blocks : No
Null samples used in CRC calculations : Yes
Used interface : Native Win32 interface for Win NT & 2000

Used output format : User Defined Encoder
Selected bitrate : 1024 kBit/s
Quality : High
Add ID3 tag : Yes
Command line compressor : C:\Program Files\FLAC\flac.exe
Additional command line options : -5 -T "Artist=%artist%" -T "Title=%title%" -T "Album=%albumtitle%" -T "Date=%year%" -T "Tracknumber=%tracknr%" -T "Genre=%genre%" %source% -o %dest%


TOC of the extracted CD

Track | Start | Length | Start sector | End sector
––––––––––––––––––––––––––––-
1 | 0:01.00 | 1:28.42 | 75 | 6716
2 | 1:29.42 | 1:18.45 | 6717 | 12611
3 | 2:48.12 | 1:09.17 | 12612 | 17803
4 | 3:57.29 | 1:19.02 | 17804 | 23730
5 | 5:16.31 | 1:15.66 | 23731 | 29421
6 | 6:32.22 | 3:55.45 | 29422 | 47091
7 | 10:27.67 | 2:16.17 | 47092 | 57308
8 | 12:44.09 | 1:52.62 | 57309 | 65770
9 | 14:36.71 | 2:01.59 | 65771 | 74904
10 | 16:38.55 | 1:31.23 | 74905 | 81752
11 | 18:10.03 | 2:19.43 | 81753 | 92220
12 | 20:29.46 | 5:50.17 | 92221 | 118487
13 | 26:19.63 | 1:06.59 | 118488 | 123496
14 | 27:26.47 | 1:16.54 | 123497 | 129250
15 | 28:43.26 | 1:12.02 | 129251 | 134652
16 | 29:55.28 | 2:00.71 | 134653 | 143723
17 | 31:56.24 | 2:16.50 | 143724 | 153973
18 | 34:12.74 | 2:42.30 | 153974 | 166153
19 | 36:55.29 | 1:20.60 | 166154 | 172213
20 | 38:16.14 | 3:19.43 | 172214 | 187181
21 | 41:35.57 | 3:36.45 | 187182 | 203426
22 | 45:12.27 | 2:51.27 | 203427 | 216278
23 | 48:03.54 | 1:55.60 | 216279 | 224963
24 | 49:59.39 | 1:26.16 | 224964 | 231429
25 | 51:25.55 | 1:25.31 | 231430 | 237835
26 | 52:51.11 | 0:48.25 | 237836 | 241460


Range status and errors

Selected range

Filename F:\=== VINYL RIPS ===\=== EAC===\X FRESH RIP\Christopher Kleinstück - Deutsche Volkslieder 13.-17. Jahrhunderts.wav

Peak level 84.8 %
Extraction speed 7.2 X
Range quality 100.0 %
Test CRC C1C6F005
Copy CRC C1C6F005
Copy OK

No errors occurred


AccurateRip summary

Track 1 not present in database
Track 2 not present in database
Track 3 not present in database
Track 4 not present in database
Track 5 not present in database
Track 6 not present in database
Track 7 not present in database
Track 8 not present in database
Track 9 not present in database
Track 10 not present in database
Track 11 not present in database
Track 12 not present in database
Track 13 not present in database
Track 14 not present in database
Track 15 not present in database
Track 16 not present in database
Track 17 not present in database
Track 18 not present in database
Track 19 not present in database
Track 20 not present in database
Track 21 not present in database
Track 22 not present in database
Track 23 not present in database
Track 24 not present in database
Track 25 not present in database
Track 26 not present in database

None of the tracks are present in the AccurateRip database

End of status report

–– CUETools DB Plugin V2.1.3

[CTDB TOCID: DDlJpigmk2WthshZ09WQukOcyAQ-] disk not present in database, Submit result: discs with pregaps not supported in this protocol version


==== Log checksum D4438C64F9134F7344D3F81DE0EABBC93765D484DB635371A968CF18B1D01F28 ====

foobar2000 1.1.14a / Dynamic Range Meter 1.1.1
log date: 2012-09-20 12:33:49

––––––––––––––––––––––––––––––––––––––––
Analyzed: Christopher Kleinstück / Deutsche Volkslieder 13.-17. Jahrhunderts
––––––––––––––––––––––––––––––––––––––––

DR Peak RMS Duration Track
––––––––––––––––––––––––––––––––––––––––
DR13 -6.16 dB -24.49 dB 1:29 01-Ach Elslein
DR14 -6.84 dB -23.76 dB 1:19 02-Mit Lust tät ich ausreiten
DR11 -7.30 dB -24.78 dB 1:09 03-Es steht ein Lind in jenem Tal
DR12 -7.10 dB -25.12 dB 1:19 04-Kume, kum Geselle mein
DR12 -11.47 dB -28.20 dB 1:16 05-Es saß ein Käterlein
DR15 -8.41 dB -28.44 dB 3:56 06-Anonym: Allemande, Pavane, Galliarde
DR14 -6.30 dB -24.60 dB 2:16 07-Weiß mir ein Blümlein blaue
DR13 -9.19 dB -25.42 dB 1:53 08-Ich weiß ein Maidlein
DR14 -1.71 dB -23.23 dB 2:02 09-Bist du des Goldschmieds Töchterlein?
DR12 -11.61 dB -26.10 dB 1:31 10-Wir zogen in das Feld
DR14 -6.76 dB -25.61 dB 2:20 11-Wo find ich deins Vaters Haus?
DR12 -10.63 dB -26.86 dB 5:50 12-H.Neusidler-Preambel: Zart schöne Frau, In Liebes Brunst, Welscher Tantz Wasc…
DR13 -4.15 dB -22.12 dB 1:07 13-Es taget vor dem Walde
DR13 -1.43 dB -22.66 dB 1:17 14-Ich fahr dahin
DR11 -10.26 dB -25.09 dB 1:12 15-Der Mayen
DR12 -5.25 dB -23.86 dB 2:01 16-Gesegn dich Laub
DR12 -6.12 dB -25.64 dB 2:17 17-Mir ist ein schönes braunes Mädelein
DR13 -7.30 dB -23.94 dB 2:42 18-Sie gleicht wohl einem Rosenstock
DR13 -6.84 dB -24.82 dB 1:21 19-Drei Laub auf einer Linden
DR13 -7.39 dB -24.52 dB 3:20 20-Es reit der Herr von Falkenstein
DR12 -12.21 dB -28.68 dB 3:37 21-Anonym: Balleto, Canzone, Hühner G'schrei
DR13 -8.18 dB -25.07 dB 2:51 22-Wo soll ich mich hinkehren?
DR12 -5.60 dB -24.77 dB 1:56 23-Innsbruck ich muß dich lassen
DR12 -7.10 dB -24.17 dB 1:26 24-Die liebe Maienzeit
DR13 -6.90 dB -23.37 dB 1:25 25-Wach auf meines Herzens Schöne
DR12 -11.93 dB -27.74 dB 0:48 26-Was wolln wir auf den Abend tun?
––––––––––––––––––––––––––––––––––––––––

Number of tracks: 26
Official DR value: DR13

Samplerate: 44100 Hz
Channels: 2
Bits per sample: 16
Bitrate: 499 kbps
Codec: FLAC
================================================================================



CD Info:

VA - "Ach liebes Elselein" Deutsche Volkslieder des 13.-17. Jahrhunderts

Christoph Kleinstück - Countertenor
Fritz Mühlhölzer - Gitarre

Label: Ars Musici
Series: Essence
Catalog#: AME 3029-2
Format: CD, Album
Country: Germany 1997
Genre: Classical, Folk
Style: Medieval, Renaissance, Baroque

Kleinstück - Deutsche Volkslieder 13.-17. Jahrhunderts [Ars Musici AME 3029-2] (1997)


Tracklist:

1 - Ach Elslein 1:29
2 - Mit Lust tät ich ausreiten 1:19
3 - Es steht ein Lind in jenem Tal 1:09
4 - Kume, kum Geselle mein 1:19
5 - Es saß ein Käterlein 1:16
6 - Anonym: Allemande, Pavane, Galliarde 3:56
7 - Weiß mir ein Blümlein blaue 2:16
8 - Ich weiß ein Maidlein 1:53
9 - Bist du des Goldschmieds Töchterlein? 2:02
10 - Wir zogen in das Feld 1:31
11 - Wo find ich deins Vaters Haus? 2:20
12 - H.Neusidler-Preambel: Zart schöne Frau, In Liebes Brunst, Welscher Tantz Wasc… 5:50
13 - Es taget vor dem Walde 1:07
14 - Ich fahr dahin 1:17
15 - Der Mayen 1:12
16 - Gesegn dich Laub 2:01
17 - Mir ist ein schönes braunes Mädelein 2:17
18 - Sie gleicht wohl einem Rosenstock 2:42
19 - Drei Laub auf einer Linden 1:21
20 - Es reit der Herr von Falkenstein 3:20
21 - Anonym: Balleto, Canzone, Hühner G'schrei 3:37
22 - Wo soll ich mich hinkehren? 2:51
23 - Innsbruck ich muß dich lassen 1:56
24 - Die liebe Maienzeit 1:26
25 - Wach auf meines Herzens Schöne 1:25
26 - Was wolln wir auf den Abend tun? 0:48

Aufgenommen/Recorded: Januar, Oktober 1995, Südwestfunk, Landesstudio Freiburg

From the collection Zupfgeigenhansl

Kleinstück - Deutsche Volkslieder 13.-17. Jahrhunderts [Ars Musici AME 3029-2] (1997)

// classical music \\
// all of my uploads \\
________________

Download:

Filepost FLAC
Filepost Artwork
________________