Subcategories

Various Composers - Hans Michael Koch - La Guitarra Espanola 1546 - 1732 (1995)

Posted By: luckburz
Various Composers - Hans Michael Koch - La Guitarra Espanola 1546 - 1732 (1995)

Various Composers - Prof. Hans Michael Koch - La Guitarra Espanola 1546 - 1732
EAC+LOG+CUE | FLAC: 212 MB | Full Artwork | 5% Recovery Info
Label/Cat#: MDG "Scene" # 605 0610-2 | Country/Year: Germany 1995
Genre: Classical | Style: Baroque, Guitar

MD5 [X] CUE [X] LOG [X] INFO TEXT [X] ARTWORK [X]

selfrip [X] not my rip []

Various Composers - Hans Michael Koch - La Guitarra Espanola 1546 - 1732 (1995)


Exact Audio Copy V1.0 beta 3 from 29. August 2011

EAC extraction logfile from 1. October 2012, 20:47

Hans Michael Koch / La Guitarra Espanola 1546 - 1732

Used drive : PIONEER BD-RW BDR-206 Adapter: 0 ID: 2

Read mode : Secure
Utilize accurate stream : Yes
Defeat audio cache : Yes
Make use of C2 pointers : No

Read offset correction : 667
Overread into Lead-In and Lead-Out : No
Fill up missing offset samples with silence : Yes
Delete leading and trailing silent blocks : No
Null samples used in CRC calculations : Yes
Used interface : Native Win32 interface for Win NT & 2000

Used output format : User Defined Encoder
Selected bitrate : 1024 kBit/s
Quality : High
Add ID3 tag : Yes
Command line compressor : C:\Program Files\FLAC\flac.exe
Additional command line options : -5 -T "Artist=%artist%" -T "Title=%title%" -T "Album=%albumtitle%" -T "Date=%year%" -T "Tracknumber=%tracknr%" -T "Genre=%genre%" %source% -o %dest%


TOC of the extracted CD

Track | Start | Length | Start sector | End sector
––––––––––––––––––––––––––––-
1 | 0:00.00 | 2:43.70 | 0 | 12294
2 | 2:43.70 | 2:02.67 | 12295 | 21511
3 | 4:46.62 | 2:18.30 | 21512 | 31891
4 | 7:05.17 | 1:23.65 | 31892 | 38181
5 | 8:29.07 | 2:31.28 | 38182 | 49534
6 | 11:00.35 | 2:24.00 | 49535 | 60334
7 | 13:24.35 | 1:57.45 | 60335 | 69154
8 | 15:22.05 | 2:02.20 | 69155 | 78324
9 | 17:24.25 | 1:13.10 | 78325 | 83809
10 | 18:37.35 | 1:56.55 | 83810 | 92564
11 | 20:34.15 | 1:12.42 | 92565 | 98006
12 | 21:46.57 | 1:20.40 | 98007 | 104046
13 | 23:07.22 | 2:51.45 | 104047 | 116916
14 | 25:58.67 | 3:07.63 | 116917 | 131004
15 | 29:06.55 | 2:14.50 | 131005 | 141104
16 | 31:21.30 | 1:59.32 | 141105 | 150061
17 | 33:20.62 | 4:31.00 | 150062 | 170386
18 | 37:51.62 | 5:36.10 | 170387 | 195596
19 | 43:27.72 | 3:13.65 | 195597 | 210136
20 | 46:41.62 | 2:00.40 | 210137 | 219176
21 | 48:42.27 | 6:00.60 | 219177 | 246236
22 | 54:43.12 | 2:20.73 | 246237 | 256809


Range status and errors

Selected range

Filename F:\=== VINYL RIPS ===\=== EAC===\X FRESH RIP\Hans Michael Koch - La Guitarra Espanola 1546 - 1732.wav

Peak level 89.9 %
Extraction speed 7.3 X
Range quality 100.0 %
Test CRC 71DCB71A
Copy CRC 71DCB71A
Copy OK

No errors occurred


AccurateRip summary

Track 1 accurately ripped (confidence 2) [8258BA2E] (AR v1)
Track 2 accurately ripped (confidence 2) [6AFDBF70] (AR v1)
Track 3 accurately ripped (confidence 2) [1CFDAB10] (AR v1)
Track 4 accurately ripped (confidence 2) [0CB6E8B2] (AR v1)
Track 5 accurately ripped (confidence 2) [69B616E7] (AR v1)
Track 6 not present in database
Track 7 accurately ripped (confidence 2) [9A034303] (AR v1)
Track 8 accurately ripped (confidence 2) [BB6699F0] (AR v1)
Track 9 accurately ripped (confidence 2) [2EC64AFE] (AR v1)
Track 10 accurately ripped (confidence 2) [4C927E9F] (AR v1)
Track 11 accurately ripped (confidence 2) [ABAD7769] (AR v1)
Track 12 accurately ripped (confidence 2) [A05164FB] (AR v1)
Track 13 accurately ripped (confidence 2) [AD46F870] (AR v1)
Track 14 not present in database
Track 15 accurately ripped (confidence 2) [6C8F6BB4] (AR v1)
Track 16 accurately ripped (confidence 2) [C23E5FF1] (AR v1)
Track 17 not present in database
Track 18 not present in database
Track 19 accurately ripped (confidence 2) [E0D4AFA3] (AR v1)
Track 20 not present in database
Track 21 not present in database
Track 22 not present in database

15 Track(s) akkurat gelesen
7 Track(s) nicht in der AccurateRip Datenbank vorhanden

Some tracks could not be verified as accurate

End of status report

–– CUETools DB Plugin V2.1.3

[CTDB TOCID: bDnmrgceW7mHAp.zqIP24gucjHI-] disk not present in database, Submit result: database access error: Timeout für Vorgang überschritten


==== Log checksum 8A64AAD2D724D28EF85470C7B404F0FF770A98A8F5385C59E0C83C1F58F4A482 ====

foobar2000 1.1.14a / Dynamic Range Meter 1.1.1
log date: 2012-11-06 21:52:04

––––––––––––––––––––––––––––––––––––––––
Analyzed: Hans Michael Koch / La Guitarra Espanola 1546 - 1732
––––––––––––––––––––––––––––––––––––––––

DR Peak RMS Duration Track
––––––––––––––––––––––––––––––––––––––––
DR16 -0.92 dB -21.98 dB 2:44 01-Conde Claros (Anonymous)
DR15 -5.48 dB -22.45 dB 2:03 02-Fantasia quinta (Miguel de Fuenllana)
DR15 -5.06 dB -23.35 dB 2:18 03-Fantasia quarta (Miguel de Fuenllana)
DR16 -3.87 dB -22.30 dB 1:24 04-Fantasia sexta (Miguel de Fuenllana)
DR17 -3.20 dB -22.93 dB 2:31 05-Fantasia del quarto tono (Alonso de Mudarra)
DR17 -3.70 dB -23.19 dB 2:24 06-Pavanas (Alonso de Mudarra)
DR16 -2.84 dB -22.47 dB 1:58 07-Fantasia del quinto tono (Alonso de Mudarra)
DR16 -3.73 dB -22.72 dB 2:02 08-Romanesca (Alonso de Mudarra)
DR11 -6.52 dB -21.38 dB 1:13 09-Preludio o Capricho Arpeado (Gaspar Sanz)
DR13 -5.35 dB -22.15 dB 1:57 10-Alemanda La Preciosa (Gaspar Sanz)
DR13 -4.43 dB -20.96 dB 1:13 11-Coriente (Gaspar Sanz)
DR12 -6.12 dB -24.55 dB 1:21 12-Zarabanda francesca (Gaspar Sanz)
DR14 -4.51 dB -21.67 dB 2:52 13-Pasacalles (Gaspar Sanz)
DR12 -6.80 dB -22.72 dB 3:08 14-Pavanas al Aire Espanol (Gaspar Sanz)
DR13 -5.59 dB -22.52 dB 2:15 15-Gallardas (Gaspar Sanz)
DR14 -3.83 dB -21.24 dB 1:59 16-Canarios (Gaspar Sanz)
DR13 -4.43 dB -22.65 dB 4:31 17-Marionas (Francesco Guerau)
DR13 -6.64 dB -23.10 dB 5:36 18-Folias (Francesco Guerau)
DR12 -7.58 dB -23.45 dB 3:14 19-Villano (Francesco Guerau)
DR13 -3.89 dB -21.68 dB 2:01 20-Preludio y Allegro (Santiago de Murcia)
DR13 -5.05 dB -21.90 dB 6:01 21-Passacalles (Santiago de Murcia)
DR14 -3.36 dB -21.34 dB 2:21 22-Jacaras (Gaspar Sanz)
––––––––––––––––––––––––––––––––––––––––

Number of tracks: 22
Official DR value: DR14

Samplerate: 44100 Hz
Channels: 2
Bits per sample: 16
Bitrate: 519 kbps
Codec: FLAC
================================================================================



CD Info:

Hans Michael Koch - La Guitarra Espanola 1546-1732

Label: MDG
Catalog#: 605 0610-2
Format: CD, Album
Country: Germany
Released: 1995
Genre: Classical
Style: Guitar, Renaissance, Baroque

Tracklist:

1 - Conde Claros (Anonymous) 2:44
2 - Fantasia quinta (Miguel de Fuenllana) 2:03
3 - Fantasia quarta (Miguel de Fuenllana) 2:18
4 - Fantasia sexta (Miguel de Fuenllana) 1:24
5 - Fantasia del quarto tono (Alonso de Mudarra) 2:31
6 - Pavanas (Alonso de Mudarra) 2:24
7 - Fantasia del quinto tono (Alonso de Mudarra) 1:58
8 - Romanesca (Alonso de Mudarra) 2:02
9 - Preludio o Capricho Arpeado (Gaspar Sanz) 1:13
10 - Alemanda La Preciosa (Gaspar Sanz) 1:57
11 - Coriente (Gaspar Sanz) 1:13
12 - Zarabanda francesca (Gaspar Sanz) 1:21
13 - Pasacalles (Gaspar Sanz) 2:52
14 - Pavanas al Aire Espanol (Gaspar Sanz) 3:08
15 - Gallardas (Gaspar Sanz) 2:15
16 - Canarios (Gaspar Sanz) 1:59
17 - Marionas (Francesco Guerau) 4:31
18 - Folias (Francesco Guerau) 5:36
19 - Villano (Francesco Guerau) 3:14
20 - Preludio y Allegro (Santiago de Murcia) 2:01
21 - Passacalles (Santiago de Murcia) 6:01
22 - Jacaras (Gaspar Sanz) 2:21

Various Composers - Hans Michael Koch - La Guitarra Espanola 1546 - 1732 (1995)


Hans Michael Koch, Baroque Guitar

Instruments:

Four-course guitar after iconographic sources by Winfried Heitland, Grevenbroich 1980 (a1 = 440 Hz)
Five-course guitar after Alexandre Voboam, Paris 1676 by Hendrik Hasenfuß, Kürsten 1994 (a1 = 415 Hz)

Recording:

June 1994, Oranienburg, Schloß Nordkirchen

Liner notes by Prof. Hans Michael Koch


Peter Ruzicka - Chamber Music: Introspecione / Ausgeweidet Die Zeit… / Preludes / Stille
Thomas Tomkins (1572-1656) - Complete Keyboard Music Vol. 2
Thomas Tomkins (1572-1656) - Complete Keyboard Music Vol. 1
Waldemar Döling - Variationen für Cembalo / Variations for harpsichord
Robert Schumann - Rudolf Innig - Complete Organ Works
Various Composers - Sächsische Orgelmusik / Saxon Organ Music
Julius Reubke - Martin Sander, Claudius Tanski - Sonata on the 94th Psalm in C minor & Piano Sonata in B minor
John Cage - Steffen Schleiermacher - Complete Piano Music Vol. 1 - The Prepared Piano
Brandt & Böhme - Wolfgang Bauer - Music For Trumpet [CD Rip]
Brandt & Böhme - Wolfgang Bauer - Music For Trumpet [SACD Rip]
Dietrich Buxtehude - Harald Vogel - Complete Organ Works
Johann Melchior Molter - Orchestral & Chamber Music
Georg Philipp Telemann - Musica Alta Ripa - Concertos and Chamber Music
Schumann - Trio Parnassus / Hariolf Schlichtig - Piano Quartet [CD Rip]
Schumann - Trio Parnassus / Hariolf Schlichtig - Piano Quartet [SACD Rip]
Christoph Graupner - Orchestral Works Vol. 3
Christoph Graupner - Orchestral Works Vol. 2
Christoph Graupner - Orchestral Works Vol. 1
Johann Sebastian Bach - Musica Alta Ripa - Solo Concertos Vol. 1
Albert Lortzing - Neue Detmolder Liedertafel - An den Frühling: Ernste und heitere Festgesänge für Männerstimmen
Musicalische Compagney - Lamenti & Concerti: Liebe und Klage in der Musik von Heinrich Schutz (1585-1672)
Franz Liszt - Tanski / Beethoven Orchester Bonn - Tasso, Totentanz, Piano Music [CD Rip]
Franz Liszt - Tanski / Beethoven Orchester Bonn - Tasso, Totentanz, Piano Music [SACD Rip]
Ottorino Respighi - Pini di Roma / Trittico / Tre Corali [CD Rip]
Ottorino Respighi - Pini di Roma / Trittico / Tre Corali [SACD Rip]
Berliner Vokalensemble ''Carl Maria von Weber'' - Bella Ciao
Berliner Vokalensemble ''Carl Maria von Weber'' - Kein schöner Land
George Frideric Handel - Belshazzar [HWV 61] (3xCD)
George Frideric Handel - Saul [HWV 53] (3xCD)
Johannes Brahms - Hardy Rittner - Early Piano Works Vol.1 [CD Rip]
Johannes Brahms - Hardy Rittner - Early Piano Works Vol.2 [CD Rip]
Johannes Brahms - Hardy Rittner - Early Piano Works Vol.2 [SACD Rip]
Johannes Brahms / Robert Schumann - Mozart Piano Quartet - Piano Quartets
Wolfgang Amadeus Mozart / Leipziger Streichquartett - The Ten Celebrated String Quartets
Norbert Schultze - Drops …unter der Laterne

Various Composers - Hans Michael Koch - La Guitarra Espanola 1546 - 1732 (1995)

// classical music \\
// all of my uploads \\
________________

Download:

Filepost FLAC
Filepost Artwork
________________