Subcategories

Erich Wolfgang Korngold - String Sextet; Piano Quintet (2012)

Posted By: Piterets
Erich Wolfgang Korngold - String Sextet; Piano Quintet (2012)

Erich Wolfgang Korngold - String Sextet; Piano Quintet (2012)
Classical | Tacet 198 | 2012 | 68:12 | EAC (FLAC, cue, log) | Full Scans | Various File Hosts | 308 MB
camerata freden

As a youth, Korngold (1897 – 1957) had been a wunderkind, impressing the likes of Gustav Mahler and Richard Strauss, and the music he wrote in his European years had a strong post-romantic flavor with rich textures, varied tone colors, and opulent harmonies. The Sextet in D major, Op. 10 (1914-1916) and the Piano Quintet in E major, Op. 15 (1921-1922) are vintage Korngold, and they are among the chamber works that have appeared with regularity on albums, often as a pair. The camerata freden offers these pieces with a warm ensemble blend that ingratiates the listener and a smooth tone that makes the music easy to like, even when it becomes a little adventurous and exotic.


Expressionistic variety of sound and colorful gliding impressionistic harmonies, the melodic invention of a somnambulist and, at the same time, wakeful attention to detail come together in Korngold with a formal sense orientated on the classical models. Korngold writes in an individual and concentrated language. The camerata freden works out his often unusual, densely packed ideas with precision and verve.


Track List:

01. String Sextet in D major, Op. 10: 1. Moderato - Allegro [0:10:18.41]
02. String Sextet in D major, Op. 10: 2. Adagio. Langsam [0:10:43.55]
03. String Sextet in D major, Op. 10: 3. Intermezzo. In gemäßigtem Zeitmaß, mit Grazie [0:06:49.40]
04. String Sextet in D major, Op. 10: 4. Finale. So rasch als möglich (Presto) [0:07:01.22]
05. Piano Quintet in E major, Op. 15: 1. Mäßiges Zeitmaß, mit schwungvoll blühendem Ausdruck [0:12:49.32]
06. Piano Quintet in E major, Op. 15: 2. Adagio. Mit größter Ruhe, stets äußerst gebunden und ausdrucksvoll [0:11:33.22]
07. Piano Quintet in E major, Op. 15: 3. Finale. Gemessen, beinahe pathetisch [0:08:54.19]


Exact Audio Copy V1.0 beta 3 from 29. August 2011

EAC extraction logfile from 26. September 2013, 14:27

Erich Wolfgang Korngold / String Sextet; Piano Quintet

Used drive : TSSTcorpCDDVDW TS-L632H Adapter: 1 ID: 0

Read mode : Secure
Utilize accurate stream : Yes
Defeat audio cache : Yes
Make use of C2 pointers : No

Read offset correction : 6
Overread into Lead-In and Lead-Out : No
Fill up missing offset samples with silence : Yes
Delete leading and trailing silent blocks : No
Null samples used in CRC calculations : Yes
Used interface : Native Win32 interface for Win NT & 2000

Used output format : User Defined Encoder
Selected bitrate : 768 kBit/s
Quality : High
Add ID3 tag : No
Command line compressor : C:\Program Files\Exact Audio Copy\FLAC\FLAC.EXE
Additional command line options : -6 -V -T "ARTIST=%artist%" -T "TITLE=%title%" -T "ALBUM=%albumtitle%" -T "DATE=%year%" -T "TRACKNUMBER=%tracknr%" -T "GENRE=%genre%" -T "COMMENT=%comment%" -T "BAND=%albuminterpret%" -T "ALBUMARTIST=%albuminterpret%" -T "COMPOSER=%composer%" %haslyrics%–tag-from-file=LYRICS="%lyricsfile%"%haslyrics% -T "DISCNUMBER=%cdnumber%" -T "TOTALDISCS=%totalcds%" -T "TOTALTRACKS=%numtracks%" %hascover%–picture="%coverfile%"%hascover% %source% -o %dest%


TOC of the extracted CD

Track | Start | Length | Start sector | End sector
––––––––––––––––––––––––––––-
1 | 0:00.00 | 10:18.41 | 0 | 46390
2 | 10:18.41 | 10:43.55 | 46391 | 94670
3 | 21:02.21 | 6:49.40 | 94671 | 125385
4 | 27:51.61 | 7:01.22 | 125386 | 156982
5 | 34:53.08 | 12:49.32 | 156983 | 214689
6 | 47:42.40 | 11:33.22 | 214690 | 266686
7 | 59:15.62 | 8:54.19 | 266687 | 306755


Range status and errors

Selected range

Filename D:\Erich Wolfgang Korngold - String Sextet; Piano Quintet\Erich Wolfgang Korngold - String Sextet; Piano Quintet.wav

Peak level 94.6 %
Extraction speed 1.8 X
Range quality 100.0 %
Test CRC C477E70D
Copy CRC C477E70D
Copy OK

No errors occurred


AccurateRip summary

Track 1 accurately ripped (confidence 2) [169C8A9B] (AR v2)
Track 2 accurately ripped (confidence 2) [CD7437BA] (AR v2)
Track 3 accurately ripped (confidence 2) [8C454C72] (AR v2)
Track 4 accurately ripped (confidence 2) [D859DE85] (AR v2)
Track 5 accurately ripped (confidence 2) [A56BBFC2] (AR v2)
Track 6 accurately ripped (confidence 2) [C5F457B3] (AR v2)
Track 7 accurately ripped (confidence 2) [2CD12FF7] (AR v2)

All tracks accurately ripped

End of status report

==== Log checksum C17599BDCCA0E9BB40DD443E7A2DC09067A42DF1656CE91DA8110436B6764114 ====


Read more about the CD here.

3% recovery record is included.

More contemporary American and European music is available at my blog.