Subcategories

Korngold - MSO, Stromberg - The Adventures of Robin Hood (2003)

Posted By: luckburz
Korngold - MSO, Stromberg - The Adventures of Robin Hood (2003)

Erich Wolfgang Korngold - The Adventures Of Robin Hood
Moscow Symphony Orchestra / William Stromberg
EAC+LOG+CUE | FLAC: 337 MB | Full Artwork | 5% Recovery Info
Label/Cat#: Marco Polo # 8.225268 | Country/Year: Europe 2003 | Genre: Soundtrack, Classical

MD5 [X] CUE [X] LOG [X] INFO TEXT [X] ARTWORK [X]

selfrip [X] not my rip []

Korngold - MSO, Stromberg - The Adventures of Robin Hood (2003)

Korngold - MSO, Stromberg - The Adventures of Robin Hood (2003)



Exact Audio Copy V1.0 beta 2 from 29. April 2011

EAC extraction logfile from 24. May 2012, 22:21

MSO, Stromberg / Korngold - The Adventures of Robin Hood

Used drive : PIONEER BD-RW BDR-206 Adapter: 2 ID: 3

Read mode : Secure
Utilize accurate stream : Yes
Defeat audio cache : Yes
Make use of C2 pointers : No

Read offset correction : 667
Overread into Lead-In and Lead-Out : No
Fill up missing offset samples with silence : Yes
Delete leading and trailing silent blocks : No
Null samples used in CRC calculations : Yes
Used interface : Native Win32 interface for Win NT & 2000

Used output format : User Defined Encoder
Selected bitrate : 896 kBit/s
Quality : High
Add ID3 tag : No
Command line compressor : C:\Program Files\FLAC\flac.exe
Additional command line options : -5 -T "Artist=%artist%" -T "Title=%title%" -T "Album=%albumtitle%" -T "Date=%year%" -T "Tracknumber=%tracknr%" -T "Genre=%genre%" %source% -o %dest%


TOC of the extracted CD

Track | Start | Length | Start sector | End sector
––––––––––––––––––––––––––––-
1 | 0:00.00 | 1:49.05 | 0 | 8179
2 | 1:49.05 | 1:48.67 | 8180 | 16346
3 | 3:37.72 | 1:10.70 | 16347 | 21666
4 | 4:48.67 | 2:13.70 | 21667 | 31711
5 | 7:02.62 | 6:12.50 | 31712 | 59661
6 | 13:15.37 | 3:55.40 | 59662 | 77326
7 | 17:11.02 | 1:58.30 | 77327 | 86206
8 | 19:09.32 | 3:28.40 | 86207 | 101846
9 | 22:37.72 | 0:55.55 | 101847 | 106026
10 | 23:33.52 | 5:11.48 | 106027 | 129399
11 | 28:45.25 | 5:58.67 | 129400 | 156316
12 | 34:44.17 | 4:19.18 | 156317 | 175759
13 | 39:03.35 | 6:37.55 | 175760 | 205589
14 | 45:41.15 | 0:47.37 | 205590 | 209151
15 | 46:28.52 | 2:26.50 | 209152 | 220151
16 | 48:55.27 | 4:39.70 | 220152 | 241146
17 | 53:35.22 | 6:24.68 | 241147 | 270014
18 | 60:00.15 | 0:45.15 | 270015 | 273404
19 | 60:45.30 | 1:10.22 | 273405 | 278676
20 | 61:55.52 | 4:03.15 | 278677 | 296916
21 | 65:58.67 | 3:08.65 | 296917 | 311081
22 | 69:07.57 | 1:32.55 | 311082 | 318036
23 | 70:40.37 | 5:36.05 | 318037 | 343241
24 | 76:16.42 | 1:33.10 | 343242 | 350226
25 | 77:49.52 | 0:35.23 | 350227 | 352874


Range status and errors

Selected range

Filename I:\=== VINYL RIPS ===\=== EAC===\X FRESH RIP\MSO, Stromberg - Korngold - The Adventures of Robin Hood.wav

Peak level 97.9 %
Extraction speed 8.4 X
Range quality 100.0 %
Test CRC D7D74283
Copy CRC D7D74283
Copy OK

No errors occurred


AccurateRip summary

Track 1 accurately ripped (confidence 10) [ADA55C77] (AR v1)
Track 2 accurately ripped (confidence 10) [AC6E0207] (AR v1)
Track 3 accurately ripped (confidence 10) [D01AC56D] (AR v1)
Track 4 accurately ripped (confidence 10) [CD931945] (AR v1)
Track 5 accurately ripped (confidence 10) [36DD4FE0] (AR v1)
Track 6 accurately ripped (confidence 10) [56B744FC] (AR v1)
Track 7 accurately ripped (confidence 10) [33318BFB] (AR v1)
Track 8 accurately ripped (confidence 10) [DE1C54F2] (AR v1)
Track 9 accurately ripped (confidence 10) [E37DE61A] (AR v1)
Track 10 accurately ripped (confidence 10) [0D63F582] (AR v1)
Track 11 accurately ripped (confidence 10) [DC0A037D] (AR v1)
Track 12 accurately ripped (confidence 10) [DAEB469E] (AR v1)
Track 13 accurately ripped (confidence 10) [AB320018] (AR v1)
Track 14 accurately ripped (confidence 10) [7F711040] (AR v1)
Track 15 accurately ripped (confidence 10) [68E01387] (AR v1)
Track 16 accurately ripped (confidence 10) [F7B13C80] (AR v1)
Track 17 accurately ripped (confidence 10) [6B2BD8B6] (AR v1)
Track 18 accurately ripped (confidence 10) [75B17AC4] (AR v1)
Track 19 accurately ripped (confidence 10) [49E33880] (AR v1)
Track 20 accurately ripped (confidence 10) [449737F3] (AR v1)
Track 21 accurately ripped (confidence 10) [FB9827C4] (AR v1)
Track 22 accurately ripped (confidence 10) [26742FD8] (AR v1)
Track 23 accurately ripped (confidence 10) [B226E316] (AR v1)
Track 24 accurately ripped (confidence 9) [6C27B2B0] (AR v1)
Track 25 accurately ripped (confidence 10) [A35D35F6] (AR v1)

All tracks accurately ripped

End of status report

==== Log checksum 7C32A259434E9A187E57C7024F68F3DF10E222447E65FDCEC52AB23417494E15 ====

foobar2000 1.1.7 / Dynamic Range Meter 1.1.1
log date: 2012-06-02 21:13:14

––––––––––––––––––––––––––––––––––––––––
Analyzed: MSO, Stromberg / Korngold - The Adventures of Robin Hood
––––––––––––––––––––––––––––––––––––––––

DR Peak RMS Duration Track
––––––––––––––––––––––––––––––––––––––––
DR11 -0.18 dB -13.85 dB 1:49 01-Main Title - Muted Fanfare
DR11 -0.21 dB -16.14 dB 1:49 02-Sir Guy and Robin Hood
DR12 -1.69 dB -19.91 dB 1:11 03-The Meeting
DR11 -6.49 dB -25.08 dB 2:14 04-The Banquet
DR13 -0.28 dB -17.20 dB 6:13 05-Robin Hood Outside - Robin Hood's Entrance - The Fight - The Chase of Robin H…
DR14 -4.11 dB -22.30 dB 3:56 06-Robin Hood Meets Little John - Robin Hood Fights with Little John - Jolly Fri…
DR12 -3.06 dB -18.73 dB 1:58 07-The Oath and The Black Arrow
DR13 -1.50 dB -19.30 dB 3:29 08-The Fish - Robin Hood's Fight with Friar Tuck
DR10 -6.00 dB -24.40 dB 0:56 09-A New Companion (Friar Tuck)
DR13 -0.21 dB -16.85 dB 5:12 10-Robin Hood Attacks Sir Guy's Party - The Attack
DR14 -0.29 dB -18.39 dB 5:59 11-Flirt - Feast - Poor People's Feast - Gold
DR12 -3.28 dB -21.53 dB 4:19 12-The Poor People
DR14 -0.20 dB -18.90 dB 6:38 13-The Tournament - Robin Hood's Appearance - Preparation for Contest - Robin Sh…
DR13 -0.72 dB -16.94 dB 0:47 14-Arrest of Robin Hood
DR13 -0.28 dB -19.05 dB 2:27 15-Tribunal - The Jail
DR14 -0.33 dB -19.30 dB 4:40 16-The Gallows - The Flight of Robin Hood
DR12 -3.25 dB -21.34 dB 6:25 17-Love Scene
DR11 -7.13 dB -23.31 dB 0:45 18-Arrest of Lady Marian
DR10 -2.41 dB -23.60 dB 1:10 19-Much: The Knife Fight
DR14 -2.23 dB -20.65 dB 4:03 20-Richard Meets Robin Hood - Richard the Lion Heart
DR12 -0.30 dB -16.60 dB 3:09 21-The Procession
DR14 -5.48 dB -26.17 dB 1:33 22-Prince John
DR13 -0.30 dB -15.96 dB 5:36 23-The Battle - The Duel - The Victory
DR11 -0.22 dB -16.90 dB 1:33 24-Epilogue
DR11 -0.26 dB -13.96 dB 0:35 25-End Cast
––––––––––––––––––––––––––––––––––––––––

Number of tracks: 25
Official DR value: DR12

Samplerate: 44100 Hz
Channels: 2
Bits per sample: 16
Bitrate: 672 kbps
Codec: FLAC
================================================================================



CD Info:

Erich Wolfgang Korngold - Moscow Symphony Orchestra / William Stromberg - The Adventures Of Robin Hood

Label: Naxos / Marco Polo
Catalog#: 8.225268
Format: CD, Album
Country: Europe
Released: 2003
Genre: Soundtrack, Classical

Tracklist:

01. Main Title - Muted Fanfare [0:01:49.05]
02. Sir Guy and Robin Hood [0:01:48.67]
03. The Meeting [0:01:10.70]
04. The Banquet [0:02:13.70]
05. Robin Hood Outside - Robin Hood's Entrance - The Fight - The Chase of Robin Hood - The Victims [0:06:12.50]
06. Robin Hood Meets Little John - Robin Hood Fights with Little John - Jolly Friendship [0:03:55.40]
07. The Oath and The Black Arrow [0:01:58.30]
08. The Fish - Robin Hood's Fight with Friar Tuck [0:03:28.40]
09. A New Companion (Friar Tuck) [0:00:55.55]
10. Robin Hood Attacks Sir Guy's Party - The Attack [0:05:11.48]
11. Flirt - Feast - Poor People's Feast - Gold [0:05:58.67]
12. The Poor People [0:04:19.18]
13. The Tournament - Robin Hood's Appearance - Preparation for Contest - Robin Shoots - Finale [0:06:37.55]
14. Arrest of Robin Hood [0:00:47.37]
15. Tribunal - The Jail [0:02:26.50]
16. The Gallows - The Flight of Robin Hood [0:04:39.70]
17. Love Scene [0:06:24.68]
18. Arrest of Lady Marian [0:00:45.15]
19. Much: The Knife Fight [0:01:10.22]
20. Richard Meets Robin Hood - Richard the Lion Heart [0:04:03.15]
21. The Procession [0:03:08.65]
22. Prince John [0:01:32.55]
23. The Battle - The Duel - The Victory [0:05:36.05]
24. Epilogue [0:01:33.10]
25. End Cast [0:00:35.23]

Notes:

First complete digital recording of the 1938 film score
Recorded at Mosfilm Studio, Moscow, Russia in February 2003

Korngold - MSO, Stromberg - The Adventures of Robin Hood (2003)


"It's hard to believe that no one before now has made a complete recording of this, one of Korngold's most famous and beloved film scores–but it certainly has been worth the wait. Beautifully restored by John Morgan, and with the Moscow Symphony on the best form we have seen so far, you now can enjoy 78 glorious minutes of some of the most evocative and colorful music ever to take the screen… the Moscow Symphony under William Stromberg manages the necessary richness of texture that the music requires…There have been many fine releases in Marco Polo's film music series, but none better or more important that this–a self-recommending acquisition if ever there were one." David Hurwitz / ClassicsToday.com
________________

Download:

FLA.part1
FLA.part2

Artwork
________________