Subcategories

Kramer - The Brill Building (2012) {Tzadik}

Posted By: ruskaval
Kramer - The Brill Building (2012) {Tzadik}

Kramer - The Brill Building (2012) {Tzadik}
EAC rip (secure mode) | FLAC (tracks)+CUE+LOG -> 272 Mb | MP3 @320 -> 101 Mb
Full Artwork @ 300 dpi (jpg) -> 24 Mb | 5% repair rar
© 2012 Tzadik | TZ 7412
Jazz / Modern Creative / Alternative Rock

Seven years in the making, Kramer has conjured what just might be his greatest CD ever—a brilliant tribute to the Jewish composers who made the legendary Brill Building in Times Square one of the centers of popular music songwriting for decades. From Bacharach to Carole King, Neil Diamond, Leiber and Stoller and Doc Pomus, these are the songs that made performers into superstars. Deeply personal yet wholly universal, Kramer captures all the poignancy and humor of these timeless classics. Welcome to The Brill Building!

Personnel: Kramer (voices, instruments); Jad Fair (vocals); Mike Jones (piano); R. Stevie Moore (vocals, guitar, drums); Daniel C. Smith (vocals).

tracklist:
01. He Hit Me
02. Do Wah Diddy Diddy
03. Baby It's You
04. Spanish Harlem
05. I Love How You Love Me
06. I Want Candy
07. Save the Last Dance for Me
08. Cherry Cherry
09. On Broadway
10. Paradise

Exact Audio Copy V1.0 beta 3 from 29. August 2011

EAC extraction logfile from 9. February 2013, 14:17

Kramer / The Brill Building

Used drive : PBDS DVD+-RW DS-8W1P Adapter: 0 ID: 0

Read mode : Secure
Utilize accurate stream : Yes
Defeat audio cache : Yes
Make use of C2 pointers : No

Read offset correction : 594
Overread into Lead-In and Lead-Out : No
Fill up missing offset samples with silence : Yes
Delete leading and trailing silent blocks : No
Null samples used in CRC calculations : Yes
Used interface : Native Win32 interface for Win NT & 2000
Gap handling : Appended to previous track

Used output format : Internal WAV Routines
Sample format : 44.100 Hz; 16 Bit; Stereo


TOC of the extracted CD

Track | Start | Length | Start sector | End sector
––––––––––––––––––––––––––––-
1 | 0:00.00 | 3:41.66 | 0 | 16640
2 | 3:41.66 | 3:33.61 | 16641 | 32676
3 | 7:15.52 | 4:41.73 | 32677 | 53824
4 | 11:57.50 | 4:42.19 | 53825 | 74993
5 | 16:39.69 | 4:31.65 | 74994 | 95383
6 | 21:11.59 | 4:27.25 | 95384 | 115433
7 | 25:39.09 | 3:05.26 | 115434 | 129334
8 | 28:44.35 | 4:29.19 | 129335 | 149528
9 | 33:13.54 | 4:39.66 | 149529 | 170519
10 | 37:53.45 | 4:18.60 | 170520 | 189929


Track 1

Filename F:\Upload\Kramer - The Brill Building (2012) Lossless\01 HE HIT ME.wav

Pre-gap length 0:00:02.00

Peak level 96.6 %
Extraction speed 0.9 X
Track quality 100.0 %
Test CRC B5998D9B
Copy CRC B5998D9B
Track not present in AccurateRip database
Copy OK

Track 2

Filename F:\Upload\Kramer - The Brill Building (2012) Lossless\02 DO WAH DIDDY DIDDY.wav

Peak level 96.6 %
Extraction speed 1.0 X
Track quality 99.9 %
Test CRC 00B26A29
Copy CRC 00B26A29
Track not present in AccurateRip database
Copy OK

Track 3

Filename F:\Upload\Kramer - The Brill Building (2012) Lossless\03 Baby IT’S YOU.wav

Peak level 96.6 %
Extraction speed 1.2 X
Track quality 100.0 %
Test CRC 48DDB498
Copy CRC 48DDB498
Track not present in AccurateRip database
Copy OK

Track 4

Filename F:\Upload\Kramer - The Brill Building (2012) Lossless\04 SPANISH HARLEM.wav

Peak level 96.6 %
Extraction speed 1.3 X
Track quality 100.0 %
Test CRC 547CDB45
Copy CRC 547CDB45
Track not present in AccurateRip database
Copy OK

Track 5

Filename F:\Upload\Kramer - The Brill Building (2012) Lossless\05 I LOVE HOW YOU LOVE ME.wav

Peak level 96.6 %
Extraction speed 1.4 X
Track quality 100.0 %
Test CRC 4971AFE3
Copy CRC 4971AFE3
Track not present in AccurateRip database
Copy OK

Track 6

Filename F:\Upload\Kramer - The Brill Building (2012) Lossless\06 I WANT CANDY.wav

Peak level 96.6 %
Extraction speed 1.5 X
Track quality 100.0 %
Test CRC 6DEE4B0D
Copy CRC 6DEE4B0D
Track not present in AccurateRip database
Copy OK

Track 7

Filename F:\Upload\Kramer - The Brill Building (2012) Lossless\07 SAVE THE LAST DANCE FOR M.wav

Peak level 96.6 %
Extraction speed 1.5 X
Track quality 100.0 %
Test CRC 2387EDBB
Copy CRC 2387EDBB
Track not present in AccurateRip database
Copy OK

Track 8

Filename F:\Upload\Kramer - The Brill Building (2012) Lossless\08 CHERRY.wav

Peak level 96.6 %
Extraction speed 1.5 X
Track quality 99.9 %
Test CRC 57A6B089
Copy CRC 57A6B089
Track not present in AccurateRip database
Copy OK

Track 9

Filename F:\Upload\Kramer - The Brill Building (2012) Lossless\09 ON BROADWAY.wav

Peak level 96.6 %
Extraction speed 1.5 X
Track quality 99.9 %
Test CRC 5FEAD394
Copy CRC 5FEAD394
Track not present in AccurateRip database
Copy OK

Track 10

Filename F:\Upload\Kramer - The Brill Building (2012) Lossless\10 Paradise.wav

Peak level 96.6 %
Extraction speed 1.8 X
Track quality 100.0 %
Test CRC 786B5636
Copy CRC 786B5636
Track not present in AccurateRip database
Copy OK


None of the tracks are present in the AccurateRip database

No errors occurred

End of status report



Kramer - The Brill Building (2012) {Tzadik}

Kramer - The Brill Building (2012) {Tzadik}


All thanks goes to the original releaser!