Subcategories

Ksawery Wójciński & Maniucha Bikont - Oj Borom, Borom... (2017)

Posted By: aasana
Ksawery Wójciński & Maniucha Bikont - Oj Borom, Borom... (2017)

Maniucha Bikont & Ksawery Wójciński - Oj Borom, Borom… (2017)
EAC Rip | FLAC (tracks+.cue) | 00:46:13 | 223,39 MB
experimental folk, experimental jazz, world music | Label: Wodzirej

Improwizacje poleskie to próba stworzenia wielopłaszczyznowej opowieści na bazie archaicznych pieśni zachodniego Polesia. Punktem wyjścia są wiosenne, weselne i miłosne pieśni ze wsi Kurczyca pod Nowogradem Wołyńskim, zasłyszane opowieści, bajki zapisane w tych okolicach przez Oskara Kolberga.

Technika śpiewu, ładunek emocjonalny zawarty w samym materiale muzycznym, ale też pamięć sytuacji, ludzi, przyrody, opowieści towarzyszących pieśniom są pretekstem do wspólnego muzykowania. Opowieść snują wspólnie głos i kontrabas - jako równorzędni jej narratorzy.

Kontrabas nie tylko towarzyszy, ale też samodzielnie opowiada, dialoguje z pieśniami i opowieściami. Głos i kontrabas stają się równoważnymi uczestnikami muzycznej sytuacji, ich role się przenikają, równoważą, wymieniają. W toku poszukiwań okazuje się, że muzyka wiejska i improwizowana to bliskie sobie języki, czy wręcz lokalne odmiany jednego języka.

Spoiwem całości są wizualizacje - abstrakcyjne i konkretne, nieodłączny element opowieści. Twórcy koncertu spotkali się wcześniej - podczas wspólnej pracy z zespołem Hera, serii koncertów "Wolne Loty" w galerii Praca i w galerii Czarna.

Tracklist:
01. Ksawery Wójciński & Maniucha Bikont - Oj Borom Borom - Pieśń Wiosenna
02. Ksawery Wójciński & Maniucha Bikont - Oj Hore Hore
03. Ksawery Wójciński & Maniucha Bikont - Maty Syna Porodyła - Pieśń Weselna
04. Ksawery Wójciński & Maniucha Bikont - Wędrówka
05. Ksawery Wójciński & Maniucha Bikont - Letióy Husy Pieśń Sobótkowa
06. Ksawery Wójciński & Maniucha Bikont - Oddaóa Mene
07. Ksawery Wójciński & Maniucha Bikont - Czumak
08. Ksawery Wójciński & Maniucha Bikont - Petriwka
09. Ksawery Wójciński & Maniucha Bikont - Buóa Oseń Chołodna
10. Ksawery Wójciński & Maniucha Bikont - Oj Chylytsja Husti Łozy
11. Ksawery Wójciński & Maniucha Bikont - Rozłąka
12. Ksawery Wójciński & Maniucha Bikont - Oj Ty Diwczyno
13. Ksawery Wójciński & Maniucha Bikont - Usi Hory Zelenijut
14. Ksawery Wójciński & Maniucha Bikont - Oj Tam U Poli - Kolęda Życząca
15. Ksawery Wójciński & Maniucha Bikont - Uże Misza Na Dwori - Pieśń Weselna
16. Ksawery Wójciński & Maniucha Bikont - Oj Daj Boże Do Weczora - Pieśń Żniwna

Exact Audio Copy V1.1 from 23. June 2015

EAC extraction logfile from 29. December 2017, 19:08

Maniucha Bikont & Ksawery Wójciński / Oj Borom, Borom…

Used drive : ASUS DRW-24B1ST j Adapter: 1 ID: 0

Read mode : Secure
Utilize accurate stream : Yes
Defeat audio cache : Yes
Make use of C2 pointers : No

Read offset correction : 6
Overread into Lead-In and Lead-Out : No
Fill up missing offset samples with silence : Yes
Delete leading and trailing silent blocks : No
Null samples used in CRC calculations : Yes
Used interface : Native Win32 interface for Win NT & 2000
Gap handling : Appended to previous track

Used output format : User Defined Encoder
Selected bitrate : 1024 kBit/s
Quality : High
Add ID3 tag : No
Command line compressor : C:\Program Files (x86)\Exact Audio Copy\Flac\flac.exe
Additional command line options : -8 -e -V -T "ARTIST=%artist%" -T "TITLE=%title%" -T "ALBUM=%albumtitle%" -T "DATE=%year%" -T "TRACKNUMBER=%tracknr%" -T "GENRE=%genre%" -T "PERFORMER=%albuminterpret%" -T "COMPOSER=%composer%" %haslyrics%–tag-from-file=LYRICS="%lyricsfile%"%haslyrics% -T "ALBUMARTIST=%albumartist%" -T "DISCNUMBER=%cdnumber%" -T "TOTALDISCS=%totalcds%" -T "TOTALTRACKS=%numtracks%" -T "COMMENT=%comment%" %source% -o %dest%


TOC of the extracted CD

Track | Start | Length | Start sector | End sector
––––––––––––––––––––––––––––-
1 | 0:00.00 | 4:39.36 | 0 | 20960
2 | 4:39.36 | 4:11.70 | 20961 | 39855
3 | 8:51.31 | 4:09.05 | 39856 | 58535
4 | 13:00.36 | 1:52.02 | 58536 | 66937
5 | 14:52.38 | 1:32.70 | 66938 | 73907
6 | 16:25.33 | 5:16.24 | 73908 | 97631
7 | 21:41.57 | 3:19.34 | 97632 | 112590
8 | 25:01.16 | 1:17.63 | 112591 | 118428
9 | 26:19.04 | 5:04.04 | 118429 | 141232
10 | 31:23.08 | 2:08.14 | 141233 | 150846
11 | 33:31.22 | 1:38.10 | 150847 | 158206
12 | 35:09.32 | 1:40.25 | 158207 | 165731
13 | 36:49.57 | 4:55.32 | 165732 | 187888
14 | 41:45.14 | 1:47.51 | 187889 | 195964
15 | 43:32.65 | 0:49.17 | 195965 | 199656
16 | 44:22.07 | 1:50.70 | 199657 | 207976


Track 1

Filename C:\Users\Hjorn\Desktop\Maniucha Bikont & Ksawery Wójciński ‎– Oj Borom, Borom… (FLAC)\01 Oj Borom Borom - Pieśń Wiosenna.wav

Pre-gap length 0:00:02.00

Peak level 99.9 %
Extraction speed 5.2 X
Track quality 100.0 %
Test CRC 508B6DDD
Copy CRC 508B6DDD
Accurately ripped (confidence 1) [054A1230] (AR v2)
Copy OK

Track 2

Filename C:\Users\Hjorn\Desktop\Maniucha Bikont & Ksawery Wójciński ‎– Oj Borom, Borom… (FLAC)\02 Oj Hore Hore.wav

Pre-gap length 0:00:01.69

Peak level 99.9 %
Extraction speed 5.7 X
Track quality 100.0 %
Test CRC 10BE1F53
Copy CRC 10BE1F53
Accurately ripped (confidence 1) [A9E468E8] (AR v2)
Copy OK

Track 3

Filename C:\Users\Hjorn\Desktop\Maniucha Bikont & Ksawery Wójciński ‎– Oj Borom, Borom… (FLAC)\03 Maty Syna Porodyła - Pieśń Weselna.wav

Pre-gap length 0:00:03.21

Peak level 99.9 %
Extraction speed 6.2 X
Track quality 100.0 %
Test CRC 025A8AE8
Copy CRC 025A8AE8
Accurately ripped (confidence 1) [80157AF8] (AR v2)
Copy OK

Track 4

Filename C:\Users\Hjorn\Desktop\Maniucha Bikont & Ksawery Wójciński ‎– Oj Borom, Borom… (FLAC)\04 Wędrówka.wav

Pre-gap length 0:00:02.26

Peak level 99.9 %
Extraction speed 5.7 X
Track quality 100.0 %
Test CRC 5D50CE7E
Copy CRC 5D50CE7E
Accurately ripped (confidence 1) [AE770435] (AR v2)
Copy OK

Track 5

Filename C:\Users\Hjorn\Desktop\Maniucha Bikont & Ksawery Wójciński ‎– Oj Borom, Borom… (FLAC)\05 Letióy Husy Pieśń Sobótkowa.wav

Pre-gap length 0:00:03.80

Peak level 74.9 %
Extraction speed 3.9 X
Track quality 99.8 %
Test CRC BB1D15CB
Copy CRC BB1D15CB
Accurately ripped (confidence 1) [E4D7A017] (AR v2)
Copy OK

Track 6

Filename C:\Users\Hjorn\Desktop\Maniucha Bikont & Ksawery Wójciński ‎– Oj Borom, Borom… (FLAC)\06 Oddaóa Mene.wav

Pre-gap length 0:00:03.04

Peak level 99.9 %
Extraction speed 7.5 X
Track quality 100.0 %
Test CRC 0239477C
Copy CRC 0239477C
Accurately ripped (confidence 1) [F122B59F] (AR v2)
Copy OK

Track 7

Filename C:\Users\Hjorn\Desktop\Maniucha Bikont & Ksawery Wójciński ‎– Oj Borom, Borom… (FLAC)\07 Czumak.wav

Pre-gap length 0:00:04.32

Peak level 99.9 %
Extraction speed 7.5 X
Track quality 100.0 %
Test CRC F5DE10BA
Copy CRC F5DE10BA
Accurately ripped (confidence 1) [BC8D99A6] (AR v2)
Copy OK

Track 8

Filename C:\Users\Hjorn\Desktop\Maniucha Bikont & Ksawery Wójciński ‎– Oj Borom, Borom… (FLAC)\08 Petriwka.wav

Pre-gap length 0:00:03.64

Peak level 83.1 %
Extraction speed 6.1 X
Track quality 100.0 %
Test CRC F3ECBF82
Copy CRC F3ECBF82
Accurately ripped (confidence 1) [B27EA304] (AR v2)
Copy OK

Track 9

Filename C:\Users\Hjorn\Desktop\Maniucha Bikont & Ksawery Wójciński ‎– Oj Borom, Borom… (FLAC)\09 Buóa Oseń Chołodna.wav

Pre-gap length 0:00:03.77

Peak level 99.9 %
Extraction speed 8.3 X
Track quality 100.0 %
Test CRC 34B202F1
Copy CRC 34B202F1
Accurately ripped (confidence 1) [FBAFABD5] (AR v2)
Copy OK

Track 10

Filename C:\Users\Hjorn\Desktop\Maniucha Bikont & Ksawery Wójciński ‎– Oj Borom, Borom… (FLAC)\10 Oj Chylytsja Husti Łozy.wav

Pre-gap length 0:00:03.09

Peak level 79.4 %
Extraction speed 7.5 X
Track quality 100.0 %
Test CRC 27155A1C
Copy CRC 27155A1C
Accurately ripped (confidence 1) [5626F9E1] (AR v2)
Copy OK

Track 11

Filename C:\Users\Hjorn\Desktop\Maniucha Bikont & Ksawery Wójciński ‎– Oj Borom, Borom… (FLAC)\11 Rozłąka.wav

Pre-gap length 0:00:03.80

Peak level 99.9 %
Extraction speed 7.2 X
Track quality 100.0 %
Test CRC 6DC61822
Copy CRC 6DC61822
Accurately ripped (confidence 1) [0FB335CE] (AR v2)
Copy OK

Track 12

Filename C:\Users\Hjorn\Desktop\Maniucha Bikont & Ksawery Wójciński ‎– Oj Borom, Borom… (FLAC)\12 Oj Ty Diwczyno.wav

Pre-gap length 0:00:02.45

Peak level 76.7 %
Extraction speed 7.3 X
Track quality 100.0 %
Test CRC E56B3C7E
Copy CRC E56B3C7E
Accurately ripped (confidence 1) [D475B15E] (AR v2)
Copy OK

Track 13

Filename C:\Users\Hjorn\Desktop\Maniucha Bikont & Ksawery Wójciński ‎– Oj Borom, Borom… (FLAC)\13 Usi Hory Zelenijut.wav

Pre-gap length 0:00:03.21

Peak level 99.9 %
Extraction speed 9.1 X
Track quality 100.0 %
Test CRC C963D4FD
Copy CRC C963D4FD
Accurately ripped (confidence 1) [1DE86394] (AR v2)
Copy OK

Track 14

Filename C:\Users\Hjorn\Desktop\Maniucha Bikont & Ksawery Wójciński ‎– Oj Borom, Borom… (FLAC)\14 Oj Tam U Poli - Kolęda Życząca.wav

Pre-gap length 0:00:03.10

Peak level 99.9 %
Extraction speed 7.9 X
Track quality 100.0 %
Test CRC 47E47201
Copy CRC 47E47201
Accurately ripped (confidence 1) [6D1B728B] (AR v2)
Copy OK

Track 15

Filename C:\Users\Hjorn\Desktop\Maniucha Bikont & Ksawery Wójciński ‎– Oj Borom, Borom… (FLAC)\15 Uże Misza Na Dwori - Pieśń Weselna.wav

Pre-gap length 0:00:03.32

Peak level 73.2 %
Extraction speed 6.1 X
Track quality 100.0 %
Test CRC 7CFAC71D
Copy CRC 7CFAC71D
Accurately ripped (confidence 1) [FB0CE24A] (AR v2)
Copy OK

Track 16

Filename C:\Users\Hjorn\Desktop\Maniucha Bikont & Ksawery Wójciński ‎– Oj Borom, Borom… (FLAC)\16 Oj Daj Boże Do Weczora - Pieśń Żniwna.wav

Pre-gap length 0:00:03.74

Peak level 99.9 %
Extraction speed 7.8 X
Track quality 100.0 %
Test CRC 5396F8C2
Copy CRC 5396F8C2
Accurately ripped (confidence 1) [E50F6D2D] (AR v2)
Copy OK


All tracks accurately ripped

No errors occurred

End of status report

–– CUETools DB Plugin V2.1.6

[CTDB TOCID: Wb11YnH8lUyR6yLZZ..a_TQRbWE-] found
Submit result: Wb11YnH8lUyR6yLZZ..a_TQRbWE- has been confirmed
Track | CTDB Status
1 | (7/7) Accurately ripped
2 | (7/7) Accurately ripped
3 | (7/7) Accurately ripped
4 | (7/7) Accurately ripped
5 | (7/7) Accurately ripped
6 | (7/7) Accurately ripped
7 | (7/7) Accurately ripped
8 | (7/7) Accurately ripped
9 | (7/7) Accurately ripped
10 | (7/7) Accurately ripped
11 | (7/7) Accurately ripped
12 | (7/7) Accurately ripped
13 | (7/7) Accurately ripped
14 | (7/7) Accurately ripped
15 | (7/7) Accurately ripped
16 | (7/7) Accurately ripped


==== Log checksum 98A5115735CB2B6FAF913C108DF469B289695A531C2B164626E080EDBD2D8C97 ====