Subcategories

L A N D - Night Within (2012) {Important Records} (ft. David Sylvian)

Posted By: ruskaval
L A N D - Night Within (2012) {Important Records} (ft. David Sylvian)

L A N D - Night Within (2012) {Important Records} (ft. David Sylvian)
EAC rip (secure mode) | FLAC (tracks)+CUE+LOG -> 221 Mb | MP3 @320 -> 85 Mb | Artwork
© 2012 Important Records | IMPREC360
Rock / Experimental Rock / Dark Relaxing

Guest contributions include David Sylvian, Daniel O'Sullivan (Miracle and Ulver), Duke Garwood and many others with the two creators, Daniel Lea and Matthew Waters, both taking a directorial role. The album was sculpted in Reykjavik by Ben Frost, enhanced by his signature aural physicality and visceral sub bass. The album is a vast collision of sound, from free brass and woodwind to "geometric" bowed cymbals and metallic percussion. But more than simply music, the multidisciplinary L A N D draw on and evoke a wide range of art forms.

They describe this work as, "approaching an apocalyptic noir narrative," and Night Within, despite its slate visual appeal which recalls the grey paintings of Gerhard Richter, thematically points towards a world occupied by the early postmodern detective stories of Paul Auster and the urban neon dislocation of Taxi Driver with its existential protagonist roaming the city alone late at night.

"This is easily one of the most intriguing and enigmatic debuts to surface this year, as two musicians that I am completely unfamiliar with have managed to assemble a killer noir jazz ensemble and enlist collaborators as impressive as Ben Frost and David Sylvian." Brainwashed

"Lea and Waters have, through a combination of a clear vision plus pure physicality, created a project where music creates its own universe, instead of simply accompanying it." SSG Music

"It's the best record I've heard in a long time: the debut by L A N D – Night Within" Anobium

"The music is telling its own story, sneaking intersensorially into the visual to hijack fluttering eyelids and instill its own sinister narrative." Tiny Mix Tapes

Composed and produced by Daniel Lea & Matthew Waters.
Mixed by Ben Frost at Greenhouse Studios, Reykjavik
Mastered by Christian Wright at Abbey Road Studios, London
All material Copyright Control LAND 2012.


Personnel:
Paul Cook: Drums & Percussion
Matthew Cousins: Bass & Percussion
Tom Farmer: Double Bass
Dom Garwood: Clarinet
Duke Garwood: Saxophone & Alto Clarinet
Jamie McCarthy: Strings & Piano
Daniel O'Sullivan: Piano
David Sylvian: Vocals
Alexander Tucker: Bowed Mandolin
Richard Turner: Trumpet

Nothing Is Happening Everywhere:
Vocals by David Sylvian
Recorded at Samadhisound
Music by Daniel Lea & MAtthew Waters
Lyrics by David Sylvian
Published by Samadhisound Publishing/Campbell Connely & Co Ltd./Copyright Control

tracklist:
01. Nothing Is Happening Everywhere (ft. David Sylvian)
02. Into The Blue
03. Stillman
04. Nighthawks
05. Cosmopolis
06. Hotel Room
07. Cold Desire

L A N D - Night Within (2012) {Important Records} (ft. David Sylvian)

L A N D - Night Within (2012) {Important Records} (ft. David Sylvian)

Exact Audio Copy V1.0 beta 3 from 29. August 2011

EAC extraction logfile from 17. December 2012, 19:38

L A N D / Night Within

Used drive : HL-DT-STDVDRAM GP40LB10 Adapter: 1 ID: 0

Read mode : Secure
Utilize accurate stream : Yes
Defeat audio cache : Yes
Make use of C2 pointers : No

Read offset correction : 6
Overread into Lead-In and Lead-Out : No
Fill up missing offset samples with silence : Yes
Delete leading and trailing silent blocks : No
Null samples used in CRC calculations : Yes
Used interface : Native Win32 interface for Win NT & 2000
Gap handling : Appended to previous track

Used output format : User Defined Encoder
Selected bitrate : 1024 kBit/s
Quality : High
Add ID3 tag : No
Command line compressor : C:\Program Files (x86)\Exact Audio Copy\FLAC\FLAC.EXE
Additional command line options : -8 -V -T "ARTIST=%artist%" -T "TITLE=%title%" -T "ALBUM=%albumtitle%" -T "DATE=%year%" -T "TRACKNUMBER=%tracknr%" -T "GENRE=%genre%" -T "PERFORMER=%albuminterpret%" -T "COMPOSER=%composer%" %haslyrics%–tag-from-file=LYRICS="%lyricsfile%"%haslyrics% -T "ALBUMARTIST=%albumartist%" -T "DISCNUMBER=%cdnumber%" -T "TOTALDISCS=%totalcds%" -T "TOTALTRACKS=%numtracks%" -T "COMMENT=%comment%" %source% -o %dest%


TOC of the extracted CD

Track | Start | Length | Start sector | End sector
––––––––––––––––––––––––––––-
1 | 0:00.00 | 5:40.46 | 0 | 25545
2 | 5:40.46 | 4:46.05 | 25546 | 47000
3 | 10:26.51 | 5:54.33 | 47001 | 73583
4 | 16:21.09 | 1:57.07 | 73584 | 82365
5 | 18:18.16 | 6:02.64 | 82366 | 109579
6 | 24:21.05 | 4:09.13 | 109580 | 128267
7 | 28:30.18 | 6:46.21 | 128268 | 158738


Track 1

Filename I:\Music3\L A N D - Night Within (2012) FLAC\01 - Nothing is Happening Everywhere (Featuring David Sylvian).wav

Pre-gap length 0:00:02.00

Peak level 99.9 %
Extraction speed 1.1 X
Track quality 99.9 %
Test CRC D271EDEE
Copy CRC D271EDEE
Accurately ripped (confidence 1) [CFD2AF51] (AR v1)
Copy OK

Track 2

Filename I:\Music3\L A N D - Night Within (2012) FLAC\02 - Into the Blue.wav

Peak level 98.0 %
Extraction speed 1.3 X
Track quality 100.0 %
Test CRC F7B56FCC
Copy CRC F7B56FCC
Accurately ripped (confidence 1) [DAC3570A] (AR v1)
Copy OK

Track 3

Filename I:\Music3\L A N D - Night Within (2012) FLAC\03 - Stillman.wav

Pre-gap length 0:00:01.32

Peak level 98.0 %
Extraction speed 1.5 X
Track quality 100.0 %
Test CRC 14FE2A7F
Copy CRC 14FE2A7F
Accurately ripped (confidence 1) [818B7BA2] (AR v1)
Copy OK

Track 4

Filename I:\Music3\L A N D - Night Within (2012) FLAC\04 - Nighthawks.wav

Pre-gap length 0:00:00.05

Peak level 97.6 %
Extraction speed 1.3 X
Track quality 100.0 %
Test CRC A5EFEA0C
Copy CRC A5EFEA0C
Accurately ripped (confidence 1) [F384F9C1] (AR v1)
Copy OK

Track 5

Filename I:\Music3\L A N D - Night Within (2012) FLAC\05 - Cosmopolis.wav

Peak level 98.0 %
Extraction speed 1.6 X
Track quality 99.9 %
Test CRC B0A6AAE1
Copy CRC B0A6AAE1
Accurately ripped (confidence 1) [58EBFF6B] (AR v1)
Copy OK

Track 6

Filename I:\Music3\L A N D - Night Within (2012) FLAC\06 - Hotel Room.wav

Peak level 94.6 %
Extraction speed 1.7 X
Track quality 100.0 %
Test CRC 6268B878
Copy CRC 6268B878
Accurately ripped (confidence 1) [D805A938] (AR v1)
Copy OK

Track 7

Filename I:\Music3\L A N D - Night Within (2012) FLAC\07 - Cold Desire.wav

Peak level 98.0 %
Extraction speed 2.0 X
Track quality 100.0 %
Test CRC DB5BE3D3
Copy CRC DB5BE3D3
Accurately ripped (confidence 1) [7987FC50] (AR v1)
Copy OK


All tracks accurately ripped

No errors occurred

End of status report

==== Log checksum 99960EEDF1D83021C98AAC2268075E0184A74463D38B77FB5B1AA26CF6AC4659 ====


Thanks to azurehum!