Subcategories

Larry Carlton - Four Hands & A Heart Volume One (2012) {335 Records}

Posted By: ruskaval
Larry Carlton - Four Hands & A Heart Volume One (2012) {335 Records}

Larry Carlton - Four Hands & A Heart Volume One (2012) {335 Records}
EAC rip (secure mode) | FLAC (tracks)+CUE+LOG -> 340 Mb | MP3 @320 -> 150 Mb
Full Artwork @ 300 dpi (png) -> 29 Mb | 5% repair rar
© 2012 335 Records, Inc. | 335-1209
Jazz / Blues / Guitar

This record is something special to Larry’s heart. He reviewed these previously recorded solo albums, “Larry Carlton”, “Strikes Twice”, and Sleepwalk” and picked tracks from them that really meant a great deal to him and recorded new electric/acoustic guitar versions of these classic Larry Carlton Tunes. I discovered Larry Carlton in 1978, when I bought his "Larry Carlton" lp. I was blown away by his virtuosity and his electric guitar tone. But there was something else, quite difficult to pin down. I finally read somewhere that Joni Mitchell described his playing as "like fly fishing." And that's it. It just makes you feel well; listening to his playing took me to a higher plane. This album does that in spades. The format here just gives you his naked guitar playing, and it's just beautiful. Less is more, indeed.

tracklist:
01. Room 335
02. Nite Crawler
03. Point It Up
04. Rio Samba
05. Don't Give It Up
06. Only Yesterday
07. Last Night
08. Song For Katie
09. Sleepwalk
10. 10 PM
11. For Love Alone
12. Strikes Twice
13. Springville
14. Mulberry Street

Larry Carlton - Four Hands & A Heart Volume One (2012) {335 Records}

Larry Carlton - Four Hands & A Heart Volume One (2012) {335 Records}

Exact Audio Copy V1.0 beta 3 from 29. August 2011

EAC extraction logfile from 18. January 2013, 8:58

Larry Carlton / Four Hands & A Heart Volume One

Used drive : PLEXTOR DVDR PX-860A Adapter: 0 ID: 0

Read mode : Secure
Utilize accurate stream : Yes
Defeat audio cache : Yes
Make use of C2 pointers : No

Read offset correction : 96
Overread into Lead-In and Lead-Out : No
Fill up missing offset samples with silence : Yes
Delete leading and trailing silent blocks : No
Null samples used in CRC calculations : Yes
Used interface : Native Win32 interface for Win NT & 2000
Gap handling : Appended to previous track

Used output format : User Defined Encoder
Selected bitrate : 1024 kBit/s
Quality : High
Add ID3 tag : No
Command line compressor : C:\Program Files\Exact Audio Copy\Flac\flac.exe
Additional command line options : -8 -V -T "ARTIST=%artist%" -T "TITLE=%title%" -T "ALBUM=%albumtitle%" -T "DATE=%year%" -T "TRACKNUMBER=%tracknr%" -T "GENRE=%genre%" -T "PERFORMER=%albuminterpret%" -T "COMPOSER=%composer%" %haslyrics%–tag-from-file=LYRICS="%lyricsfile%"%haslyrics% -T "ALBUMARTIST=%albumartist%" -T "DISCNUMBER=%cdnumber%" -T "TOTALDISCS=%totalcds%" -T "TOTALTRACKS=%numtracks%" -T "COMMENT=EAC Secure Mode, Test & Copy, AccurateRip, FLAC -8" %source% -o %dest%


TOC of the extracted CD

Track | Start | Length | Start sector | End sector
––––––––––––––––––––––––––––-
1 | 0:00.00 | 3:57.42 | 0 | 17816
2 | 3:57.42 | 4:41.07 | 17817 | 38898
3 | 8:38.49 | 4:28.42 | 38899 | 59040
4 | 13:07.16 | 4:31.09 | 59041 | 79374
5 | 17:38.25 | 4:42.60 | 79375 | 100584
6 | 22:21.10 | 4:27.74 | 100585 | 120683
7 | 26:49.09 | 3:58.28 | 120684 | 138561
8 | 30:47.37 | 4:31.10 | 138562 | 158896
9 | 35:18.47 | 4:49.67 | 158897 | 180638
10 | 40:08.39 | 5:13.12 | 180639 | 204125
11 | 45:21.51 | 4:55.34 | 204126 | 226284
12 | 50:17.10 | 4:31.49 | 226285 | 246658
13 | 54:48.59 | 4:15.73 | 246659 | 265856
14 | 59:04.57 | 3:50.07 | 265857 | 283113


Track 1

Filename I:\DL\Larry Carlton - Four Hands & A Heart Volume One (2012) [FLAC]\01 - Room 335.wav

Pre-gap length 0:00:02.00

Peak level 99.5 %
Extraction speed 4.5 X
Track quality 100.0 %
Test CRC EB9BBF65
Copy CRC EB9BBF65
Track not present in AccurateRip database
Copy OK

Track 2

Filename I:\DL\Larry Carlton - Four Hands & A Heart Volume One (2012) [FLAC]\02 - Night Crawler.wav

Peak level 99.5 %
Extraction speed 5.1 X
Track quality 100.0 %
Test CRC 5A6AD76D
Copy CRC 5A6AD76D
Track not present in AccurateRip database
Copy OK

Track 3

Filename I:\DL\Larry Carlton - Four Hands & A Heart Volume One (2012) [FLAC]\03 - Point it Up.wav

Peak level 99.5 %
Extraction speed 4.8 X
Track quality 99.9 %
Test CRC 7D9515E9
Copy CRC 7D9515E9
Track not present in AccurateRip database
Copy OK

Track 4

Filename I:\DL\Larry Carlton - Four Hands & A Heart Volume One (2012) [FLAC]\04 - Rio Samba.wav

Peak level 99.5 %
Extraction speed 5.9 X
Track quality 100.0 %
Test CRC 5AE66A88
Copy CRC 5AE66A88
Track not present in AccurateRip database
Copy OK

Track 5

Filename I:\DL\Larry Carlton - Four Hands & A Heart Volume One (2012) [FLAC]\05 - Don't Give it Up.wav

Peak level 99.5 %
Extraction speed 6.2 X
Track quality 100.0 %
Test CRC 9FE6BE03
Copy CRC 9FE6BE03
Track not present in AccurateRip database
Copy OK

Track 6

Filename I:\DL\Larry Carlton - Four Hands & A Heart Volume One (2012) [FLAC]\06 - It Was Only Yesterday.wav

Peak level 98.2 %
Extraction speed 6.4 X
Track quality 100.0 %
Test CRC D2631862
Copy CRC D2631862
Track not present in AccurateRip database
Copy OK

Track 7

Filename I:\DL\Larry Carlton - Four Hands & A Heart Volume One (2012) [FLAC]\07 - Last Nite.wav

Peak level 99.5 %
Extraction speed 6.0 X
Track quality 99.9 %
Test CRC BA05FF20
Copy CRC BA05FF20
Track not present in AccurateRip database
Copy OK

Track 8

Filename I:\DL\Larry Carlton - Four Hands & A Heart Volume One (2012) [FLAC]\08 - Song For Katie.wav

Peak level 99.5 %
Extraction speed 7.1 X
Track quality 100.0 %
Test CRC 4923B40A
Copy CRC 4923B40A
Track not present in AccurateRip database
Copy OK

Track 9

Filename I:\DL\Larry Carlton - Four Hands & A Heart Volume One (2012) [FLAC]\09 - Sleepwalk.wav

Peak level 99.5 %
Extraction speed 7.6 X
Track quality 100.0 %
Test CRC F82F4FC3
Copy CRC F82F4FC3
Track not present in AccurateRip database
Copy OK

Track 10

Filename I:\DL\Larry Carlton - Four Hands & A Heart Volume One (2012) [FLAC]\10 - 10 Pm.wav

Peak level 99.5 %
Extraction speed 7.9 X
Track quality 100.0 %
Test CRC 494B29C7
Copy CRC 494B29C7
Track not present in AccurateRip database
Copy OK

Track 11

Filename I:\DL\Larry Carlton - Four Hands & A Heart Volume One (2012) [FLAC]\11 - For Love Alone.wav

Peak level 99.5 %
Extraction speed 7.3 X
Track quality 99.9 %
Test CRC 59D9FA5F
Copy CRC 59D9FA5F
Track not present in AccurateRip database
Copy OK

Track 12

Filename I:\DL\Larry Carlton - Four Hands & A Heart Volume One (2012) [FLAC]\12 - Strikes Twice.wav

Peak level 99.5 %
Extraction speed 8.3 X
Track quality 100.0 %
Test CRC B5302227
Copy CRC B5302227
Track not present in AccurateRip database
Copy OK

Track 13

Filename I:\DL\Larry Carlton - Four Hands & A Heart Volume One (2012) [FLAC]\13 - Springville.wav

Peak level 99.5 %
Extraction speed 7.4 X
Track quality 99.9 %
Test CRC 54235E4F
Copy CRC 54235E4F
Track not present in AccurateRip database
Copy OK

Track 14

Filename I:\DL\Larry Carlton - Four Hands & A Heart Volume One (2012) [FLAC]\14 - Mullberry Street.wav

Peak level 99.5 %
Extraction speed 7.4 X
Track quality 99.9 %
Test CRC F8323270
Copy CRC F8323270
Track not present in AccurateRip database
Copy OK


None of the tracks are present in the AccurateRip database

No errors occurred

End of status report

–– CUETools DB Plugin V2.1.3

[CTDB TOCID: AwGgOnRiYamZ39oD0Vaoc6IT6lo-] found, Submit result: AwGgOnRiYamZ39oD0Vaoc6IT6lo- has been confirmed
[204efff3] (4/4) Accurately ripped


==== Log checksum 6BA61C338F2E05E4D0B0C14FEBD6FF3115AE435D366B8F17E6F2E898B2568D03 ====


Thanks to dtromp!