Subcategories

Larry Young's Fuel - Spaceball (1976) {BMG Japan 2005 Mini LP K2 re-issue}

Posted By: ruskaval
Larry Young's Fuel - Spaceball (1976) {BMG Japan 2005 Mini LP K2 re-issue}

Larry Young's Fuel - Spaceball (1976) {BMG Japan 2005 Mini LP K2 re-issue}
EAC rip (secure mode) | FLAC (tracks)+CUE+LOG -> 298 Mb | MP3 @320 -> 100 Mb
Full Artwork @ 300 dpi (png) -> 18 Mb | 5% repair rar
© 1976, 2005 Arista / BMG Japan | BVCJ-37490 | Mini LP | K2 24bit Mastering
Jazz / Jazz Funk / Soul Jazz / Organ

Some stellar stuff in there, and other bits that are a bit more on the forgettable side of things. Even though Young's output was starting to be a bit inconsistent, he was still very much trailblazing and this CD is nonetheless an important document; This was to be his last complete album session before his untimely passing at age 38, and it shows the maverick organ player charting a course for the funkier and electrified side of things. This CD was only made available in Japan, as a part of the "Legends Of Cosmic Jazz Funk" paper sleeve series.
If Jimmy Smith was "the Charlie Parker of the organ," Larry Young was its John Coltrane. One of the great innovators of the mid- to late '60s, Young fashioned a distinctive modal approach to the Hammond B-3 at a time when Smith's earthy, blues-drenched soul-jazz style was the instrument's dominant voice. Initially, Young was very much a Smith admirer himself. After playing with various R&B bands in the 1950s and being featured as a sideman with tenor saxman Jimmy Forrest in 1960, Young debuted as a leader that year with Testifying, which, like his subsequent soul-jazz efforts for Prestige, Young Blues (1960), and Groove Street, (1962), left no doubt that Smith was his primary inspiration. But when Young went to Blue Note in 1964, he was well on his way to becoming a major innovator.
Larry Young's Fuel - Spaceball (1976) {BMG Japan 2005 Mini LP K2 re-issue}


tracklist:
01 - Moonwalk
02 - Startripper
03 - Sticky Wicket
04 - Flytime
05 - Spaceball
06 - Message From Mars
07 - I'm Aware Of You

Exact Audio Copy V1.0 beta 4 from 7. December 2014

EAC extraction logfile from 8. March 2016, 5:29

Larry Young's Fuel / Spaceball

Used drive : TSSTcorpDVD+-RW TS-H653B Adapter: 1 ID: 0

Read mode : Secure
Utilize accurate stream : Yes
Defeat audio cache : Yes
Make use of C2 pointers : No

Read offset correction : 6
Overread into Lead-In and Lead-Out : No
Fill up missing offset samples with silence : Yes
Delete leading and trailing silent blocks : No
Null samples used in CRC calculations : Yes
Used interface : Native Win32 interface for Win NT & 2000
Gap handling : Appended to previous track

Used output format : User Defined Encoder
Selected bitrate : 128 kBit/s
Quality : High
Add ID3 tag : No
Command line compressor : C:\Program Files (x86)\Exact Audio Copy\Flac\flac.exe
Additional command line options : -8 -V -T "ARTIST=%artist%" -T "TITLE=%title%" -T "ALBUM=%albumtitle%" -T "DATE=%year%" -T "TRACKNUMBER=%tracknr%" -T "TOTALTRACKS=%numtracks%" -T "GENRE=%genre%" -T "ALBUMARTIST=%albumartist%" -T "ALBUM ARTIST=%albumartist%" -T "COMMENT=EAC Secure Mode, Test & Copy, AccurateRip, FLAC -8" %source%


TOC of the extracted CD

Track | Start | Length | Start sector | End sector
––––––––––––––––––––––––––––-
1 | 0:00.00 | 5:32.13 | 0 | 24912
2 | 5:32.13 | 4:46.20 | 24913 | 46382
3 | 10:18.33 | 9:25.13 | 46383 | 88770
4 | 19:43.46 | 4:54.36 | 88771 | 110856
5 | 24:38.07 | 5:10.33 | 110857 | 134139
6 | 29:48.40 | 7:31.28 | 134140 | 167992
7 | 37:19.68 | 5:06.16 | 167993 | 190958


Track 1

Filename C:\extract\albums\Larry Young's Fuel - Spaceball (1976) [FLAC] {BMG Japan 2005 re-issue}\01 - Moonwalk.wav

Pre-gap length 0:00:02.00

Peak level 98.8 %
Extraction speed 4.6 X
Track quality 100.0 %
Test CRC E1F19B9B
Copy CRC E1F19B9B
Accurately ripped (confidence 3) [E1FDCA3D] (AR v2)
Copy OK

Track 2

Filename C:\extract\albums\Larry Young's Fuel - Spaceball (1976) [FLAC] {BMG Japan 2005 re-issue}\02 - Startripper.wav

Pre-gap length 0:00:01.11

Peak level 98.8 %
Extraction speed 5.1 X
Track quality 100.0 %
Test CRC 9560AC27
Copy CRC 9560AC27
Accurately ripped (confidence 3) [775F8B0D] (AR v2)
Copy OK

Track 3

Filename C:\extract\albums\Larry Young's Fuel - Spaceball (1976) [FLAC] {BMG Japan 2005 re-issue}\03 - Sticky Wicket.wav

Pre-gap length 0:00:02.37

Peak level 98.8 %
Extraction speed 6.1 X
Track quality 100.0 %
Test CRC C8CB58BD
Copy CRC C8CB58BD
Accurately ripped (confidence 3) [D89B7890] (AR v2)
Copy OK

Track 4

Filename C:\extract\albums\Larry Young's Fuel - Spaceball (1976) [FLAC] {BMG Japan 2005 re-issue}\04 - Flytime.wav

Peak level 98.8 %
Extraction speed 5.3 X
Track quality 99.9 %
Test CRC A8A44A14
Copy CRC A8A44A14
Accurately ripped (confidence 3) [3F35A19A] (AR v2)
Copy OK

Track 5

Filename C:\extract\albums\Larry Young's Fuel - Spaceball (1976) [FLAC] {BMG Japan 2005 re-issue}\05 - Spaceball.wav

Pre-gap length 0:00:03.62

Peak level 98.8 %
Extraction speed 5.7 X
Track quality 99.9 %
Test CRC 3E17FB3C
Copy CRC 3E17FB3C
Accurately ripped (confidence 3) [52527FA0] (AR v2)
Copy OK

Track 6

Filename C:\extract\albums\Larry Young's Fuel - Spaceball (1976) [FLAC] {BMG Japan 2005 re-issue}\06 - Message From Mars.wav

Pre-gap length 0:00:01.35

Peak level 98.8 %
Extraction speed 7.5 X
Track quality 100.0 %
Test CRC 3BF5AB88
Copy CRC 3BF5AB88
Accurately ripped (confidence 3) [C51359A2] (AR v2)
Copy OK

Track 7

Filename C:\extract\albums\Larry Young's Fuel - Spaceball (1976) [FLAC] {BMG Japan 2005 re-issue}\07 - I'm Aware Of You.wav

Pre-gap length 0:00:03.09

Peak level 98.8 %
Extraction speed 7.6 X
Track quality 100.0 %
Test CRC A7F4E1F5
Copy CRC A7F4E1F5
Accurately ripped (confidence 3) [A3289EAA] (AR v2)
Copy OK


All tracks accurately ripped

No errors occurred

End of status report

–– CUETools DB Plugin V2.1.4

[CTDB TOCID: X6mFUcLc1i6D4xCqE13.PBsFL0k-] found
Submit result: already submitted
Track | CTDB Status
1 | (3/3) Accurately ripped
2 | (3/3) Accurately ripped
3 | (3/3) Accurately ripped
4 | (3/3) Accurately ripped
5 | (3/3) Accurately ripped
6 | (3/3) Accurately ripped
7 | (3/3) Accurately ripped


==== Log checksum 258EA95543F3E55D800EF31303218E079C373B5FDBF6B70503E30B54D194B1ED ====


Larry Young's Fuel - Spaceball (1976) {BMG Japan 2005 Mini LP K2 re-issue}

Larry Young's Fuel - Spaceball (1976) {BMG Japan 2005 Mini LP K2 re-issue}


All thanks goes to the original releaser!