Subcategories

Lee Morgan - Indeed! (1956) {2007 Rudy Van Gelder Remaster}

Posted By: ruskaval
Lee Morgan - Indeed! (1956) {2007 Rudy Van Gelder Remaster}

Lee Morgan - Indeed! (1956) {2007 Rudy Van Gelder Remaster}
EAC rip (secure mode) | FLAC+CUE+LOG -> 212 Mb | MP3 @320 -> 102 Mb
Full Artwork @ 300 dpi (png) -> 54 Mb
© 2007 EMI / Blue Note | 0946 3 92781 2 1 | 24-bit remaster
Jazz / Hard Bop / Bop / Trumpet


Lee Morgan - Indeed! (1956) {2007 Rudy Van Gelder Remaster}

For years, the only Lee Morgan 50s session available as a single album was Candy (see my review). But now that the Mosaic set "The Complete Blue Note Lee Morgan Fifties Sessions" has sold out, and presumably the licensing contract has expired, all six original albums have finally been reissued in 2007 by the mother label, EMI. "Indeed" is indeed the trumpeter's first recording – made on November 4, 1956, a day before "Introducing Lee Morgan," but the latter Savoy session made it to market first back in the day. "Indeed" is a quintet date featuring Lee, lesser known Clarence Sharpe on alto sax, Horace Silver on piano, Wilbur Ware on bass, and Philly Joe Jones on drums. It is a typical "blowing session" of the day, though the original compositions of Silver, Donald Byrd, Benny Golson and Owen Marshall (the latter two will contribute on Lee's next album Lee Morgan, Vol. 2 – see my review) show that Alfred Lion went to great lengths to showcase his young star in a proper setting. For most, Lee Morgan doesn't hit his stride until his stint with the Jazz Messengers or even his landmark The Sidewinder, but "Indeed" is a great look at early Lee.
Personnel: Lee Morgan (trumpet); Clarence Sharpe (alto saxophone); Horace Silver (piano); Wilbur Ware (bass guitar); Philly Joe Jones (drums).

tracklist:
1. Roccus
2. Reggie of Chester
3. The Lady
4. Little T (aka The New Message)
5. Gaza Strip
6. Stand By
7. Little T (alternate take)

Lee Morgan - Indeed! (1956) {2007 Rudy Van Gelder Remaster}

Lee Morgan - Indeed! (1956) {2007 Rudy Van Gelder Remaster}

Exact Audio Copy V0.99 prebeta 5 from 4. May 2009

EAC extraction logfile from 24. December 2009, 18:01

Lee Morgan / Indeed!

Used drive : TSSTcorpCD/DVDW TS-H552L Adapter: 3 ID: 0

Read mode : Secure
Utilize accurate stream : Yes
Defeat audio cache : Yes
Make use of C2 pointers : No

Read offset correction : 6
Overread into Lead-In and Lead-Out : No
Fill up missing offset samples with silence : Yes
Delete leading and trailing silent blocks : No
Null samples used in CRC calculations : Yes
Used interface : Native Win32 interface for Win NT & 2000
Gap handling : Appended to previous track

Used output format : User Defined Encoder
Selected bitrate : 1024 kBit/s
Quality : High
Add ID3 tag : No
Command line compressor : C:\Program Files\FLAC\flac.exe
Additional command line options : -6 -V -T "ARTIST=%a" -T "TITLE=%t" -T "ALBUM=%g" -T "DATE=%y" -T "TRACKNUMBER=%n" -T "GENRE=%m" -T "COMMENT=EAC FLAC -6" %s


TOC of the extracted CD

Track | Start | Length | Start sector | End sector
––––––––––––––––––––––––––––-
1 | 0:00.00 | 8:18.49 | 0 | 37398
2 | 8:18.49 | 4:55.23 | 37399 | 59546
3 | 13:13.72 | 6:47.49 | 59547 | 90120
4 | 20:01.46 | 8:23.24 | 90121 | 127869
5 | 28:24.70 | 3:56.55 | 127870 | 145624
6 | 32:21.50 | 5:51.00 | 145625 | 171949
7 | 38:12.50 | 8:07.31 | 171950 | 208505


Track 1

Filename C:\Lee Morgan - Indeed! (1956) {2007 Rudy Van Gelder Remaster}\01 - Roccus.wav

Pre-gap length 0:00:02.00

Peak level 92.7 %
Track quality 100.0 %
Test CRC FB338330
Copy CRC FB338330
Cannot be verified as accurate (confidence 2) [83A51828], AccurateRip returned [6828E22C]
Copy OK

Track 2

Filename C:\Lee Morgan - Indeed! (1956) {2007 Rudy Van Gelder Remaster}\02 - Reggie Of Chester.wav

Pre-gap length 0:00:03.11

Peak level 92.2 %
Track quality 100.0 %
Test CRC 3F2B7AE2
Copy CRC 3F2B7AE2
Cannot be verified as accurate (confidence 2) [2EF15D88], AccurateRip returned [63F535F8]
Copy OK

Track 3

Filename C:\Lee Morgan - Indeed! (1956) {2007 Rudy Van Gelder Remaster}\03 - The Lady.wav

Pre-gap length 0:00:03.28

Peak level 85.3 %
Track quality 100.0 %
Test CRC 5E8B9396
Copy CRC 5E8B9396
Cannot be verified as accurate (confidence 2) [CEA24E24], AccurateRip returned [EF78380C]
Copy OK

Track 4

Filename C:\Lee Morgan - Indeed! (1956) {2007 Rudy Van Gelder Remaster}\04 - Little T (aka The New Message).wav

Pre-gap length 0:00:03.47

Peak level 94.4 %
Track quality 100.0 %
Test CRC 73625D81
Copy CRC 73625D81
Cannot be verified as accurate (confidence 2) [5B5A33F2], AccurateRip returned [A2583E3E]
Copy OK

Track 5

Filename C:\Lee Morgan - Indeed! (1956) {2007 Rudy Van Gelder Remaster}\05 - Gaza Strip.wav

Pre-gap length 0:00:03.13

Peak level 94.2 %
Track quality 100.0 %
Test CRC 4AE773CA
Copy CRC 4AE773CA
Cannot be verified as accurate (confidence 2) [E51C51EB], AccurateRip returned [051D49FB]
Copy OK

Track 6

Filename C:\Lee Morgan - Indeed! (1956) {2007 Rudy Van Gelder Remaster}\06 - Stand By.wav

Pre-gap length 0:00:03.66

Peak level 85.1 %
Track quality 99.9 %
Test CRC 0EEF21FC
Copy CRC 0EEF21FC
Cannot be verified as accurate (confidence 2) [45EE9339], AccurateRip returned [5AE073ED]
Copy OK

Track 7

Filename C:\Lee Morgan - Indeed! (1956) {2007 Rudy Van Gelder Remaster}\07 - Little T (Alternate Take).wav

Pre-gap length 0:00:03.00

Peak level 93.1 %
Track quality 100.0 %
Test CRC DD40DA44
Copy CRC DD40DA44
Cannot be verified as accurate (confidence 2) [1B9E6935], AccurateRip returned [9FAE1C19]
Copy OK


No tracks could be verified as accurate
You may have a different pressing from the one(s) in the database

No errors occurred

End of status report