Subcategories

Lee Morgan and Wayne Shorter - The Complete Vee Jay Lee Morgan-Wayne Shorter Sessions (2000) [6CD Boxset]

Posted By: ruskaval
Lee Morgan and Wayne Shorter - The Complete Vee Jay Lee Morgan-Wayne Shorter Sessions (2000) [6CD Boxset]

Lee Morgan and Wayne Shorter - The Complete Vee Jay Lee Morgan-Wayne Shorter Sessions (2000) [6CD Boxset]
EAC rip (secure mode) | FLAC+CUE+LOG -> 2,7 Gb | MP3 @320 -> 957 Mb | Artwork -> 9 Mb
Mosaic MD6-202 | Rhino R2 7532

Mosaic Records continues to repackage and remaster previously released and unreleased material by jazz legends past and present. Here, the ongoing saga continues with this sharply produced set featuring trumpeter Lee Morgan and saxophonist Wayne Shorter's recordings for the now defunct, Chicago, IL-based Vee-Jay recording label. With this six-CD compilation, the listener will find meticulously detailed annotations of the story behind Vee-Jay, chronological accounts of the musicians' backgrounds and basically what was transpiring during 1959 and 1961, which denotes the time frame of these sessions. The producers also provide an album index of the original recordings and a reference matrix of the personnel on a per-disc basis. And while Morgan was a rising star who had already released six LPs as a leader for Blue Note records, these works represent Shorter's initial dates as a leader. Here we find Morgan manning a front-line attack with either Shorter performing on tenor sax or his collaborations with alto saxophonist Frank Strozier, drummers Art Blakey, and Louis Hayes, pianist Bobby Timmons, and many others of note who appear throughout the entire scope of these discs. Basically, the music is formulated from within the hard bop vein amid a number of medium-tempo and hard-swinging motifs, ballads, and alternate takes. Shorter proceeded to record a number of exceptional LPs for Blue Note Records, whereas, his already shining star had rapidly risen thanks to his affiliation with Miles Davis and collaboration with keyboardist Joe Zawinul in the pioneering fusion band Weather Report. Meanwhile, Morgan was viewed upon as being the logical successor to trumpeter Clifford Brown as he surged onward to record several timeless classics prior to his tragic death in 1972. Hence, this presentation supplies additional evidence to their everlasting influences as you are treated to Morgan's fluent lines, subtle inflections, radiant lyricism, and Shorter's sinewy attack, penetrating extended notes and optimal utilization of space. Recommended!

tracklist
Disc 1:
01. Seeds of Sin - The Young Lions
02. Seeds of Sin [A] [Version] - The Young Lions
03. Scourin' - The Young Lions
04. Scourin' [A] [Version] - The Young Lions
05. Fat Lady - The Young Lions
06. Fat Lady [A] [Version] - The Young Lions
07. Peaches and Cream [A] [Version] - The Young Lions
08. That's Right [A] [Version] - The Young Lions
09. Running Brook - Lee Morgan
10. Terrible "T" - Lee Morgan


Disc 2:
01. Mogie - Lee Morgan
02. Mogie - Lee Morgan
03. Mogie - Lee Morgan
04. Off Spring - Lee Morgan
05. Off Spring [Edit] - Lee Morgan
06. Bess - Lee Morgan
07. Bess - Lee Morgan
08. Running Brook - Lee Morgan
09. Running Brook - Lee Morgan
10. Terrible "T" - Lee Morgan
11. Terrible "T" - Lee Morgan


Disc 3:
01. I'm a Fool to Want You - Lee Morgan
02. I'm a Fool to Want You - Lee Morgan
03. I'm a Fool to Want You - Lee Morgan
04. Expoobident - Lee Morgan
05. Expoobident - Lee Morgan
06. Fire - Lee Morgan
07. Fire - Lee Morgan
08. Just in Time - Lee Morgan
09. Just in Time - Lee Morgan
10. Triple Track - Lee Morgan
11. Triple Track - Lee Morgan
12. Easy Living - Lee Morgan
13. The Hearing - Lee Morgan
14. Lost and Found - Lee Morgan


Disc 4:
01. Blues a la Carte - Wayne Shorter
02. Blues a la Carte - Wayne Shorter
03. Harry's Last Stand - Wayne Shorter
04. Harry's Last Stand - Wayne Shorter
05. Down in the Depths - Wayne Shorter
06. Down in the Depths - Wayne Shorter
07. Pug Nose - Wayne Shorter
08. Pug Nose - Wayne Shorter
09. Black Diamond - Wayne Shorter
10. Black Diamond - Wayne Shorter
11. Mack the Knife - Wayne Shorter


Disc 5:
01. The Ruby and the Pearl - Wayne Shorter
02. The Ruby and the Pearl - Wayne Shorter
03. Pay as You Go - Wayne Shorter
04. Second Genesis - Wayne Shorter
05. Mr. Chairman - Wayne Shorter
06. Mr. Chairman - Wayne Shorter
07. Tenderfoot - Wayne Shorter
08. Tenderfoot - Wayne Shorter
09. The Albatross - Wayne Shorter
10. The Albtross - Wayne Shorter
11. Getting to Know You [Alternate Take] - Wayne Shorter
12. Getting to Know You - Wayne Shorter
13. I Didn't Know What Time It Was - Wayne Shorter


Disc 6:
01. Black Orpheus [Alternate Take] - Wayne Shorter
02. Black Orpheus - Wayne Shorter
03. Dead End [Alternate Take] - Wayne Shorter
04. Dead End [Alternate Take] - Wayne Shorter
05. Dead End - Wayne Shorter
06. All or Nothing at All [Alternate Take] - Wayne Shorter
07. All or Nothing at All - Wayne Shorter
08. Calloway Went That-A-Way [Alternate Take] - Wayne Shorter
09. Calloway Went That-A-Way - Wayne Shorter
10. Wayning Moments [First Alternate Take] - Wayne Shorter
11. Wayning Moments - Wayne Shorter
12. Wayning Moments [Second Alternate Take] - Wayne Shorter
13. Moon of Manakoora [Alternate Take] - Wayne Shorter
14. Moon of Manakoora - Wayne Shorter
15. Powder Keg [Alternate Take] - Wayne Shorter
16. Powder Keg - Wayne Shorter
17. Devil's Island [Alternate Take] - Wayne Shorter
18. Devil's Island - Wayne Shorter

CREDITS
Jymie Merritt Bass
Eddie Higgins Piano
Art Blakey Drums
Wayne Shorter Sax (Tenor)
Bob Cranshaw Bass
The Young Lions Performer
Art Davis Bass
Marshall Thompson Drums
Malcolm Addey Mastering, Tape Transfer
Wynton Kelly Piano
Sid McCoy Producer
Bruce Swedien Engineer
Charlie Lourie Executive Producer
Bobby Timmons Piano
Michael Cuscuna Producer
Bill Stoddard Engineer
Cedar Walton Piano
Richard Mantel Design Direction
Jimmy Cobb Drums
Lee Morgan Main Performer, Trumpet
Louis Hayes Drums
Freddie Hubbard Trumpet

Exact Audio Copy V0.99 prebeta 4 from 23. January 2008

EAC extraction logfile from 13. June 2009, 12:09

Lee Morgan and Wayne Shorter / The Complete Vee Jay Sessions (CD6)

Used drive : PIONEER DVD-RW DVR-111L Adapter: 0 ID: 0

Read mode : Secure
Utilize accurate stream : Yes
Defeat audio cache : Yes
Make use of C2 pointers : No

Read offset correction : 48
Overread into Lead-In and Lead-Out : No
Fill up missing offset samples with silence : Yes
Delete leading and trailing silent blocks : No
Null samples used in CRC calculations : Yes
Used interface : Native Win32 interface for Win NT & 2000
Gap handling : Appended to previous track

Used output format : User Defined Encoder
Selected bitrate : 768 kBit/s
Quality : High
Add ID3 tag : No
Command line compressor : C:\Program Files\FLAC\flac.exe
Additional command line options : -8 -V -T "ARTIST=%a" -T "TITLE=%t" -T "ALBUM=%g" -T "DATE=%y" -T "TRACKNUMBER=%n" -T "GENRE=%m" -T "COMMENT=EAC FLAC -8" %s


TOC of the extracted CD

Track | Start | Length | Start sector | End sector
––––––––––––––––––––––––––––-
1 | 0:00.00 | 4:42.31 | 0 | 21180
2 | 4:42.31 | 4:38.00 | 21181 | 42030
3 | 9:20.31 | 4:41.22 | 42031 | 63127
4 | 14:01.53 | 5:12.59 | 63128 | 86586
5 | 19:14.37 | 4:36.27 | 86587 | 107313
6 | 23:50.64 | 3:01.50 | 107314 | 120938
7 | 26:52.39 | 2:59.48 | 120939 | 134411
8 | 29:52.12 | 4:00.12 | 134412 | 152423
9 | 33:52.24 | 4:52.49 | 152424 | 174372
10 | 38:44.73 | 6:20.43 | 174373 | 202915
11 | 45:05.41 | 4:22.39 | 202916 | 222604
12 | 49:28.05 | 4:22.43 | 222605 | 242297
13 | 53:50.48 | 4:49.47 | 242298 | 264019
14 | 58:40.20 | 3:45.08 | 264020 | 280902
15 | 62:25.28 | 3:38.42 | 280903 | 297294
16 | 66:03.70 | 3:14.15 | 297295 | 311859
17 | 69:18.10 | 4:00.25 | 311860 | 329884
18 | 73:18.35 | 3:54.55 | 329885 | 347489


Track 1

Filename C:\Lee Morgan and Wayne Shorter - The Complete Vee Jay Lee Morgan-Wayne Shorter Sessions (2000) [6CD Boxset]\CD6\01 - Black Orpheus (Alt Tk).wav

Pre-gap length 0:00:02.00

Peak level 94.3 %
Track quality 100.0 %
Test CRC 35C5DAB2
Copy CRC 35C5DAB2
Copy OK

Track 2

Filename C:\Lee Morgan and Wayne Shorter - The Complete Vee Jay Lee Morgan-Wayne Shorter Sessions (2000) [6CD Boxset]\CD6\02 - Black Orpheus.wav

Peak level 87.4 %
Track quality 100.0 %
Test CRC 57675B89
Copy CRC 57675B89
Copy OK

Track 3

Filename C:\Lee Morgan and Wayne Shorter - The Complete Vee Jay Lee Morgan-Wayne Shorter Sessions (2000) [6CD Boxset]\CD6\03 - Dead End (First Alt Tk).wav

Peak level 94.4 %
Track quality 100.0 %
Test CRC D4D71A89
Copy CRC D4D71A89
Copy OK

Track 4

Filename C:\Lee Morgan and Wayne Shorter - The Complete Vee Jay Lee Morgan-Wayne Shorter Sessions (2000) [6CD Boxset]\CD6\04 - Dead End (Second Alt Tk).wav

Peak level 97.2 %
Track quality 100.0 %
Test CRC 3FB78DA0
Copy CRC 3FB78DA0
Copy OK

Track 5

Filename C:\Lee Morgan and Wayne Shorter - The Complete Vee Jay Lee Morgan-Wayne Shorter Sessions (2000) [6CD Boxset]\CD6\05 - Dead End.wav

Peak level 90.7 %
Track quality 100.0 %
Test CRC 22C0E61E
Copy CRC 22C0E61E
Copy OK

Track 6

Filename C:\Lee Morgan and Wayne Shorter - The Complete Vee Jay Lee Morgan-Wayne Shorter Sessions (2000) [6CD Boxset]\CD6\06 - All Or Nothing At All (Alt Tk).wav

Peak level 98.1 %
Track quality 99.9 %
Test CRC 7CD4DE38
Copy CRC 7CD4DE38
Copy OK

Track 7

Filename C:\Lee Morgan and Wayne Shorter - The Complete Vee Jay Lee Morgan-Wayne Shorter Sessions (2000) [6CD Boxset]\CD6\07 - All Or Nothing At All.wav

Peak level 94.6 %
Track quality 99.9 %
Test CRC 666090B0
Copy CRC 666090B0
Copy OK

Track 8

Filename C:\Lee Morgan and Wayne Shorter - The Complete Vee Jay Lee Morgan-Wayne Shorter Sessions (2000) [6CD Boxset]\CD6\08 - Calloway Went That-A-Way (Alt Tk).wav

Peak level 94.3 %
Track quality 100.0 %
Test CRC 40E2CAF5
Copy CRC 40E2CAF5
Copy OK

Track 9

Filename C:\Lee Morgan and Wayne Shorter - The Complete Vee Jay Lee Morgan-Wayne Shorter Sessions (2000) [6CD Boxset]\CD6\09 - Calloway Went That-A-Way.wav

Peak level 94.1 %
Track quality 100.0 %
Test CRC 3F9C50ED
Copy CRC 3F9C50ED
Copy OK

Track 10

Filename C:\Lee Morgan and Wayne Shorter - The Complete Vee Jay Lee Morgan-Wayne Shorter Sessions (2000) [6CD Boxset]\CD6\10 - Wayning Moments (First Alt Tk).wav

Peak level 100.0 %
Track quality 99.9 %
Test CRC 8D47CFB1
Copy CRC 8D47CFB1
Copy OK

Track 11

Filename C:\Lee Morgan and Wayne Shorter - The Complete Vee Jay Lee Morgan-Wayne Shorter Sessions (2000) [6CD Boxset]\CD6\11 - Wayning Moments (Alt Tk).wav

Peak level 88.4 %
Track quality 100.0 %
Test CRC CC6F53C3
Copy CRC CC6F53C3
Copy OK

Track 12

Filename C:\Lee Morgan and Wayne Shorter - The Complete Vee Jay Lee Morgan-Wayne Shorter Sessions (2000) [6CD Boxset]\CD6\12 - Wayning Moments (Second Alt Tk).wav

Peak level 100.0 %
Track quality 100.0 %
Test CRC B902E680
Copy CRC B902E680
Copy OK

Track 13

Filename C:\Lee Morgan and Wayne Shorter - The Complete Vee Jay Lee Morgan-Wayne Shorter Sessions (2000) [6CD Boxset]\CD6\13 - Moon Of Manakoora (Alt Tk).wav

Peak level 99.5 %
Track quality 100.0 %
Test CRC 6720D40F
Copy CRC 6720D40F
Copy OK

Track 14

Filename C:\Lee Morgan and Wayne Shorter - The Complete Vee Jay Lee Morgan-Wayne Shorter Sessions (2000) [6CD Boxset]\CD6\14 - Moon Of Manakoora.wav

Peak level 97.7 %
Track quality 100.0 %
Test CRC 1677AF1C
Copy CRC 1677AF1C
Copy OK

Track 15

Filename C:\Lee Morgan and Wayne Shorter - The Complete Vee Jay Lee Morgan-Wayne Shorter Sessions (2000) [6CD Boxset]\CD6\15 - Powder Keg (Alt Tk).wav

Peak level 95.5 %
Track quality 100.0 %
Test CRC EF4BE21F
Copy CRC EF4BE21F
Copy OK

Track 16

Filename C:\Lee Morgan and Wayne Shorter - The Complete Vee Jay Lee Morgan-Wayne Shorter Sessions (2000) [6CD Boxset]\CD6\16 - Powder Keg.wav

Peak level 98.0 %
Track quality 100.0 %
Test CRC 708D8898
Copy CRC 708D8898
Copy OK

Track 17

Filename C:\Lee Morgan and Wayne Shorter - The Complete Vee Jay Lee Morgan-Wayne Shorter Sessions (2000) [6CD Boxset]\CD6\17 - Devil's Island (Alt Tk).wav

Peak level 87.0 %
Track quality 100.0 %
Test CRC 863300F8
Copy CRC 863300F8
Copy OK

Track 18

Filename C:\Lee Morgan and Wayne Shorter - The Complete Vee Jay Lee Morgan-Wayne Shorter Sessions (2000) [6CD Boxset]\CD6\18 - Devil's Island.wav

Peak level 94.3 %
Track quality 100.0 %
Test CRC A6C8ECC6
Copy CRC A6C8ECC6
Copy OK

No errors occurred

End of status report