Subcategories

Lars-Erik Larsson - Symphonies 1 & 2

Posted By: dino63
Lars-Erik Larsson - Symphonies 1 & 2

Lars-Erik Larsson - Symphonies 1 & 2
EAC | FLAC+Cue+Log | Scans | 1 CD | 294 MB
Classical | BIS | 1989

Larsson (1908-1986) became one of the most beloved Swedish composers of his generation. His Symphony 1, written when he was twenty years old, has all the hallmarks of Nordic Romanticism, and the presence of Sibelius wanders about in the background. But the center of the work is tonal and very colorful. This was immensely popular when it appeared in 1928. His Symphony 2 (1937) doesn't lose its romantic center, but is this time colored in darker shades. A political statement about the Russians and the Nazis? Perhaps. But it has the same brooding charm as Nielsen's Symphony 4 or Sibelius's Symphony 6. Great music inside and out.
Paul Cook

Conductor: Hans-Peter Frank
Orchestra: Helsingborg Symphony Orchestra

01 - Symphony No.1 in D Major, Op.2 I.Allegro moderato.flac
02 - Symphony No.1 in D Major, Op.2 II.Adagio.flac
03 - Symphony No.1 in D Major, Op.2 III.Scherzo. Allegro vivace.flac
04 - Symphony No.1 in D Major, Op.2 IV.Finale. Allegro con spirito.flac
05 - Symphony No.2, Op.17 I.Allegro con moto.flac
06 - Symphony No.2, Op.17 II.Andante.flac
07 - Symphony No.2, Op.17 III.Moderato. Prestissimo.flac


Exact Audio Copy V0.99 prebeta 4 from 23. January 2008

EAC extraction logfile from 28. April 2009, 2:14

Helsingborg Symphony Orchestra - Hans-Peter Frank / Lars-Erik Larsson - Symphonies 1 & 2

Used drive : PLEXTOR DVDR PX-740A Adapter: 1 ID: 1

Read mode : Secure
Utilize accurate stream : Yes
Defeat audio cache : Yes
Make use of C2 pointers : No

Read offset correction : 618
Overread into Lead-In and Lead-Out : No
Fill up missing offset samples with silence : Yes
Delete leading and trailing silent blocks : No
Null samples used in CRC calculations : Yes
Used interface : Installed external ASPI interface
Gap handling : Not detected, thus appended to previous track

Used output format : User Defined Encoder
Selected bitrate : 512 kBit/s
Quality : High
Add ID3 tag : No
Command line compressor : C:\Program Files\Exact Audio Copy\Flac\flac.exe
Additional command line options : -T "artist=%a" -T "title=%t" -T "album=%g" -T "date=%y" -T "tracknumber=%n" -T "genre=%m" -T "comment=Compliments of Dino" %s


TOC of the extracted CD

Track | Start | Length | Start sector | End sector
––––––––––––––––––––––––––––-
1 | 0:00.00 | 10:54.00 | 0 | 49049
2 | 10:54.00 | 4:54.37 | 49050 | 71136
3 | 15:48.37 | 6:48.38 | 71137 | 101774
4 | 22:37.00 | 8:28.00 | 101775 | 139874
5 | 31:05.00 | 15:30.00 | 139875 | 209624
6 | 46:35.00 | 10:58.00 | 209625 | 258974
7 | 57:33.00 | 9:28.00 | 258975 | 301574


Track 1

Filename E:\00 NEW C\Lars-Erik Larsson - Symphonies 1 & 2\01 - Symphony No.1 in D Major, Op.2 I.Allegro moderato.wav

Peak level 79.3 %
Track quality 100.0 %
Copy CRC BE021550
Track not present in AccurateRip database
Copy OK

Track 2

Filename E:\00 NEW C\Lars-Erik Larsson - Symphonies 1 & 2\02 - Symphony No.1 in D Major, Op.2 II.Adagio.wav

Peak level 58.0 %
Track quality 100.0 %
Copy CRC 4874E264
Track not present in AccurateRip database
Copy OK

Track 3

Filename E:\00 NEW C\Lars-Erik Larsson - Symphonies 1 & 2\03 - Symphony No.1 in D Major, Op.2 III.Scherzo. Allegro vivace.wav

Peak level 79.3 %
Track quality 100.0 %
Copy CRC F11DFB2F
Track not present in AccurateRip database
Copy OK

Track 4

Filename E:\00 NEW C\Lars-Erik Larsson - Symphonies 1 & 2\04 - Symphony No.1 in D Major, Op.2 IV.Finale. Allegro con spirito.wav

Peak level 93.4 %
Track quality 100.0 %
Copy CRC EAA9500F
Track not present in AccurateRip database
Copy OK

Track 5

Filename E:\00 NEW C\Lars-Erik Larsson - Symphonies 1 & 2\05 - Symphony No.2, Op.17 I.Allegro con moto.wav

Peak level 84.6 %
Track quality 100.0 %
Copy CRC EDFE3C93
Track not present in AccurateRip database
Copy OK

Track 6

Filename E:\00 NEW C\Lars-Erik Larsson - Symphonies 1 & 2\06 - Symphony No.2, Op.17 II.Andante.wav

Peak level 86.5 %
Track quality 100.0 %
Copy CRC 65B47288
Track not present in AccurateRip database
Copy OK

Track 7

Filename E:\00 NEW C\Lars-Erik Larsson - Symphonies 1 & 2\07 - Symphony No.2, Op.17 III.Moderato. Prestissimo.wav

Peak level 100.0 %
Track quality 100.0 %
Copy CRC F0AED738
Track not present in AccurateRip database
Copy OK


None of the tracks are present in the AccurateRip database

No errors occurred

End of status report