Subcategories

Les Insus - Live (2017) {3 CD Set Parlophone - 0190295802677}

Posted By: ruskaval
Les Insus - Live (2017) {3 CD Set Parlophone - 0190295802677}

Les Insus - Live (2017) {3 CD Set Parlophone - 0190295802677}
EAC rip (secure mode) | FLAC (tracks)+CUE+LOG -> 1.32 Gb | MP3 @320 -> 445 Mb
Full Artwork @ 300 dpi (jpg) -> 47 Mb | 5% repair rar
© 2017 ABKR / Parlophone / Warner Music France | 0190295802677
Rock / France

Extensive souvenir of the 2016 and 2017 reunion tour by Les Insus, aka Jean-Louis Aubert (guitar, vocals), Louis Bertignac (guitar, vocals) and Richard Kolinka (drums), with bass player Aleksander Angelov standing in for original member Corine Marienneau. Had she been there, the band simply would've been called Téléphone, but there's still a lot of bad blood between her and the rest of the band. The others had the good grace not to use the original band name to mark her absence. The first two discs feature a full show recorded at the L'AccorHotels Arena in Paris, which captures the atmosphere of the tour very well, while disc 3 was recorded at the Trabendo club and features many lesser known deep cuts and rarities.
Les Insus - Live (2017) {3 CD Set Parlophone - 0190295802677}


Track Listing

CD1

1-1 Crache Ton Venin
1-2 Hygiaphone
1-3 Dans Ton Lit
1-4 Faits Divers
1-5 Argent Trop Cher
1-6 La Bombe Humaine
1-7 Au Coeur de la Nuit
1-8 66 Heures
1-9 Cendrillon
1-10 Flipper

Les Insus - Live (2017) {3 CD Set Parlophone - 0190295802677}


CD2
2-1 Métro (C'est Trop)
2-2 Le Silence
2-3 Le Jour S'est Levé
2-4 Jour Contre Jour
2-5 Dure Limite
2-6 Ce Que Je Veux
2-7 New York Avec Toi
2-8 Un Autre Monde
2-9 Le Vaudou (Est Toujours Debout)
2-10 Ca (C'est Vraiment Toi)
2-11 Tu Vas Me Manquer

CD3
3-1 Un Homme + Un Homme
3-2 Sur La Route
3-3 Prends Ce Que Tu Veux
3-4 Anna
3-5 J'suis Parti De Chez Mes Parents
3-6 Facile
3-7 Un Peu De Ton Amour
3-8 Ploum Ploum
3-9 Pourquoi N'essaies-tu Pas ?
3-10 Seul
3-11 Laisse Tomber
3-12 Les Ils Et Les Ons
3-13 Le Garçon D'ascenseur
3-14 Ordinaire
3-15 La Laisse
3-16 Serrez
3-17 Le Temps
3-18 Juste Un Autre Genre

Les Insus - Live (2017) {3 CD Set Parlophone - 0190295802677}


Exact Audio Copy V1.1 from 23. June 2015

EAC extraction logfile from 16. September 2017, 15:34

Les Insus / Les Insus Live

Used drive : TSSTcorpCDDVDW SH-216DB Adapter: 1 ID: 0

Read mode : Secure
Utilize accurate stream : Yes
Defeat audio cache : Yes
Make use of C2 pointers : No

Read offset correction : 6
Overread into Lead-In and Lead-Out : No
Fill up missing offset samples with silence : Yes
Delete leading and trailing silent blocks : No
Null samples used in CRC calculations : Yes
Used interface : Native Win32 interface for Win NT & 2000
Gap handling : Appended to previous track

Used output format : User Defined Encoder
Selected bitrate : 1024 kBit/s
Quality : High
Add ID3 tag : No
Command line compressor : C:\Program Files (x86)\Exact Audio Copy\FLAC\FLAC.EXE
Additional command line options : -8 -V -T "ARTIST=%artist%" -T "TITLE=%title%" -T "ALBUM=%albumtitle%" -T "DATE=%year%" -T "TRACKNUMBER=%tracknr%" -T "TOTALTRACKS=%numtracks%" -T "GENRE=%genre%" -T "ALBUMARTIST=%albumartist%" -T "ALBUM ARTIST=%albumartist%" -T "COMMENT=EAC Secure Mode, Test & Copy, AccurateRip, FLAC -8" %source%


TOC of the extracted CD

Track | Start | Length | Start sector | End sector
––––––––––––––––––––––––––––-
1 | 0:00.00 | 6:01.20 | 0 | 27094
2 | 6:01.20 | 3:05.55 | 27095 | 41024
3 | 9:07.00 | 4:10.49 | 41025 | 59823
4 | 13:17.49 | 4:12.71 | 59824 | 78794
5 | 17:30.45 | 4:08.54 | 78795 | 97448
6 | 21:39.24 | 5:36.21 | 97449 | 122669
7 | 27:15.45 | 5:06.50 | 122670 | 145669
8 | 32:22.20 | 2:59.59 | 145670 | 159153
9 | 35:22.04 | 5:50.72 | 159154 | 185475
10 | 41:13.01 | 7:32.57 | 185476 | 219432


Track 1

Filename C:\01- Crache ton Venin.wav

Pre-gap length 0:00:02.00

Peak level 99.9 %
Extraction speed 4.6 X
Track quality 100.0 %
Test CRC C43E9F8A
Copy CRC C43E9F8A
Accurately ripped (confidence 1) [6FDB0731] (AR v2)
Copy OK

Track 2

Filename C:\02- Hygiaphone.wav

Peak level 100.0 %
Extraction speed 4.7 X
Track quality 100.0 %
Test CRC FE52E043
Copy CRC FE52E043
Accurately ripped (confidence 1) [CCE009A9] (AR v2)
Copy OK

Track 3

Filename C:\03- Dans ton Lit.wav

Peak level 100.0 %
Extraction speed 4.3 X
Track quality 99.9 %
Test CRC D2CE62B7
Copy CRC D2CE62B7
Accurately ripped (confidence 1) [33585008] (AR v2)
Copy OK

Track 4

Filename C:\04- Faits Divers.wav

Peak level 99.9 %
Extraction speed 4.6 X
Track quality 99.9 %
Test CRC 7E165268
Copy CRC 7E165268
Accurately ripped (confidence 1) [55DB656D] (AR v2)
Copy OK

Track 5

Filename C:\05- Argent trop Cher.wav

Peak level 100.0 %
Extraction speed 6.0 X
Track quality 100.0 %
Test CRC B7407915
Copy CRC B7407915
Accurately ripped (confidence 1) [9859C20A] (AR v2)
Copy OK

Track 6

Filename C:\06- La bombe Humaine.wav

Peak level 99.9 %
Extraction speed 5.6 X
Track quality 99.9 %
Test CRC 136D41A8
Copy CRC 136D41A8
Accurately ripped (confidence 1) [D949EC4A] (AR v2)
Copy OK

Track 7

Filename C:\07- Au Coeur de la Nuit.wav

Peak level 100.0 %
Extraction speed 6.9 X
Track quality 100.0 %
Test CRC F4A2604A
Copy CRC F4A2604A
Accurately ripped (confidence 1) [3D9991D9] (AR v2)
Copy OK

Track 8

Filename C:\08- 66 Heures.wav

Peak level 100.0 %
Extraction speed 6.7 X
Track quality 100.0 %
Test CRC 34323F13
Copy CRC 34323F13
Track not present in AccurateRip database
Copy OK

Track 9

Filename C:\09- Cendrillon.wav

Peak level 99.6 %
Extraction speed 7.6 X
Track quality 100.0 %
Test CRC 065A3E26
Copy CRC 065A3E26
Track not present in AccurateRip database
Copy OK

Track 10

Filename C:\10- Flipper.wav

Peak level 100.0 %
Extraction speed 8.2 X
Track quality 100.0 %
Test CRC 6DA14B0A
Copy CRC 6DA14B0A
Track not present in AccurateRip database
Copy OK


7 track(s) accurately ripped
3 track(s) not present in the AccurateRip database

Some tracks could not be verified as accurate

No errors occurred

End of status report

–– CUETools DB Plugin V2.1.6

[CTDB TOCID: F_MSMvLp5tSAtqSZz4i_Cfi2q.0-] found
Submit result: F_MSMvLp5tSAtqSZz4i_Cfi2q.0- has been confirmed
Track | CTDB Status
1 | (19/19) Accurately ripped
2 | (19/19) Accurately ripped
3 | (19/19) Accurately ripped
4 | (19/19) Accurately ripped
5 | (19/19) Accurately ripped
6 | (19/19) Accurately ripped
7 | (19/19) Accurately ripped
8 | (19/19) Accurately ripped
9 | (19/19) Accurately ripped
10 | (19/19) Accurately ripped


==== Log checksum B3A70C269366939FCC918C9491B386909994287E085CC008DD2CF5DF86D379A3 ====
Exact Audio Copy V1.1 from 23. June 2015

EAC extraction logfile from 16. September 2017, 20:44

Les Insus / Les Insus Live

Used drive : TSSTcorpCDDVDW SH-216DB Adapter: 1 ID: 0

Read mode : Secure
Utilize accurate stream : Yes
Defeat audio cache : Yes
Make use of C2 pointers : No

Read offset correction : 6
Overread into Lead-In and Lead-Out : No
Fill up missing offset samples with silence : Yes
Delete leading and trailing silent blocks : No
Null samples used in CRC calculations : Yes
Used interface : Native Win32 interface for Win NT & 2000
Gap handling : Appended to previous track

Used output format : User Defined Encoder
Selected bitrate : 1024 kBit/s
Quality : High
Add ID3 tag : No
Command line compressor : C:\Program Files (x86)\Exact Audio Copy\FLAC\FLAC.EXE
Additional command line options : -8 -V -T "ARTIST=%artist%" -T "TITLE=%title%" -T "ALBUM=%albumtitle%" -T "DATE=%year%" -T "TRACKNUMBER=%tracknr%" -T "TOTALTRACKS=%numtracks%" -T "GENRE=%genre%" -T "ALBUMARTIST=%albumartist%" -T "ALBUM ARTIST=%albumartist%" -T "COMMENT=EAC Secure Mode, Test & Copy, AccurateRip, FLAC -8" %source%


TOC of the extracted CD

Track | Start | Length | Start sector | End sector
––––––––––––––––––––––––––––-
1 | 0:00.00 | 5:32.17 | 0 | 24916
2 | 5:32.17 | 6:06.32 | 24917 | 52398
3 | 11:38.49 | 5:22.00 | 52399 | 76548
4 | 17:00.49 | 4:38.11 | 76549 | 97409
5 | 21:38.60 | 5:42.04 | 97410 | 123063
6 | 27:20.64 | 3:40.62 | 123064 | 139625
7 | 31:01.51 | 4:33.62 | 139626 | 160162
8 | 35:35.38 | 8:00.47 | 160163 | 196209
9 | 43:36.10 | 3:19.68 | 196210 | 211202
10 | 46:56.03 | 6:35.08 | 211203 | 240835
11 | 53:31.11 | 7:25.12 | 240836 | 274222


Track 1

Filename C:\01- Metro (c'est trop).wav

Pre-gap length 0:00:02.00

Peak level 100.0 %
Extraction speed 5.0 X
Track quality 100.0 %
Test CRC 2E147A94
Copy CRC 2E147A94
Track not present in AccurateRip database
Copy OK

Track 2

Filename C:\02- Le silence.wav

Peak level 100.0 %
Extraction speed 5.6 X
Track quality 100.0 %
Test CRC AAA700F9
Copy CRC AAA700F9
Track not present in AccurateRip database
Copy OK

Track 3

Filename C:\03- Le jour s'est leve.wav

Peak level 100.0 %
Extraction speed 5.1 X
Track quality 99.9 %
Test CRC BDD1C154
Copy CRC BDD1C154
Track not present in AccurateRip database
Copy OK

Track 4

Filename C:\04- Jour contre jour.wav

Peak level 99.6 %
Extraction speed 6.3 X
Track quality 100.0 %
Test CRC A122A194
Copy CRC A122A194
Track not present in AccurateRip database
Copy OK

Track 5

Filename C:\05- Dure limite.wav

Peak level 100.0 %
Extraction speed 7.0 X
Track quality 100.0 %
Test CRC 491661A2
Copy CRC 491661A2
Track not present in AccurateRip database
Copy OK

Track 6

Filename C:\06- Ce que je veux.wav

Peak level 100.0 %
Extraction speed 6.8 X
Track quality 100.0 %
Test CRC 143BFA10
Copy CRC 143BFA10
Track not present in AccurateRip database
Copy OK

Track 7

Filename C:\07- New York avec toi.wav

Peak level 100.0 %
Extraction speed 7.3 X
Track quality 100.0 %
Test CRC 29050C39
Copy CRC 29050C39
Track not present in AccurateRip database
Copy OK

Track 8

Filename C:\08- Un autre monde.wav

Peak level 100.0 %
Extraction speed 8.2 X
Track quality 100.0 %
Test CRC 0845157A
Copy CRC 0845157A
Track not present in AccurateRip database
Copy OK

Track 9

Filename C:\09- Le vaudou (est toujours debout).wav

Peak level 99.5 %
Extraction speed 7.6 X
Track quality 100.0 %
Test CRC 170640DE
Copy CRC 170640DE
Track not present in AccurateRip database
Copy OK

Track 10

Filename C:\10- Ca (c'est vraiment toi).wav

Peak level 100.0 %
Extraction speed 8.6 X
Track quality 100.0 %
Test CRC 1925F8A3
Copy CRC 1925F8A3
Track not present in AccurateRip database
Copy OK

Track 11

Filename C:\11- Tu vas me manquer.wav

Peak level 99.7 %
Extraction speed 8.8 X
Track quality 100.0 %
Test CRC BC73A3CF
Copy CRC BC73A3CF
Track not present in AccurateRip database
Copy OK


None of the tracks are present in the AccurateRip database

No errors occurred

End of status report

–– CUETools DB Plugin V2.1.6

[CTDB TOCID: VHZ01w0uME5FKrZohXcf3eVW9e8-] found
Submit result: already submitted
Track | CTDB Status
1 | (20/20) Accurately ripped
2 | (20/20) Accurately ripped
3 | (20/20) Accurately ripped
4 | (20/20) Accurately ripped
5 | (20/20) Accurately ripped
6 | (20/20) Accurately ripped
7 | (20/20) Accurately ripped
8 | (20/20) Accurately ripped
9 | (20/20) Accurately ripped
10 | (20/20) Accurately ripped
11 | (20/20) Accurately ripped


==== Log checksum 93DDECBDF228CA999BA869104B7CCA8CDCC3488501B9CD0AB64293E0F0C13195 ====
Exact Audio Copy V1.1 from 23. June 2015

EAC extraction logfile from 16. September 2017, 20:06

Les Insus / Les Insus L?ve

Used drive : TSSTcorpCDDVDW SH-216DB Adapter: 1 ID: 0

Read mode : Secure
Utilize accurate stream : Yes
Defeat audio cache : Yes
Make use of C2 pointers : No

Read offset correction : 6
Overread into Lead-In and Lead-Out : No
Fill up missing offset samples with silence : Yes
Delete leading and trailing silent blocks : No
Null samples used in CRC calculations : Yes
Used interface : Native Win32 interface for Win NT & 2000
Gap handling : Appended to previous track

Used output format : User Defined Encoder
Selected bitrate : 1024 kBit/s
Quality : High
Add ID3 tag : No
Command line compressor : C:\Program Files (x86)\Exact Audio Copy\FLAC\FLAC.EXE
Additional command line options : -8 -V -T "ARTIST=%artist%" -T "TITLE=%title%" -T "ALBUM=%albumtitle%" -T "DATE=%year%" -T "TRACKNUMBER=%tracknr%" -T "TOTALTRACKS=%numtracks%" -T "GENRE=%genre%" -T "ALBUMARTIST=%albumartist%" -T "ALBUM ARTIST=%albumartist%" -T "COMMENT=EAC Secure Mode, Test & Copy, AccurateRip, FLAC -8" %source%


TOC of the extracted CD

Track | Start | Length | Start sector | End sector
––––––––––––––––––––––––––––-
1 | 0:00.00 | 2:47.03 | 0 | 12527
2 | 2:47.03 | 4:19.05 | 12528 | 31957
3 | 7:06.08 | 4:13.37 | 31958 | 50969
4 | 11:19.45 | 3:01.57 | 50970 | 64601
5 | 14:21.27 | 2:46.13 | 64602 | 77064
6 | 17:07.40 | 3:28.52 | 77065 | 92716
7 | 20:36.17 | 4:55.55 | 92717 | 114896
8 | 25:31.72 | 3:30.65 | 114897 | 130711
9 | 29:02.62 | 4:07.56 | 130712 | 149292
10 | 33:10.43 | 5:25.31 | 149293 | 173698
11 | 38:35.74 | 6:38.38 | 173699 | 203586
12 | 45:14.37 | 4:25.62 | 203587 | 223523
13 | 49:40.24 | 6:09.16 | 223524 | 251214
14 | 55:49.40 | 3:21.49 | 251215 | 266338
15 | 59:11.14 | 3:27.52 | 266339 | 281915
16 | 62:38.66 | 4:57.18 | 281916 | 304208
17 | 67:36.09 | 5:35.58 | 304209 | 329391
18 | 73:11.67 | 4:49.22 | 329392 | 351088


Track 1

Filename C:\01- Un Homme + Un Homme.wav

Pre-gap length 0:00:02.00

Peak level 84.8 %
Extraction speed 1.8 X
Track quality 100.0 %
Copy CRC 85500E27
Track not present in AccurateRip database
Copy OK

Track 2

Filename C:\02- Sur la Route.wav

Peak level 98.4 %
Extraction speed 2.1 X
Track quality 100.0 %
Copy CRC D193FDC8
Track not present in AccurateRip database
Copy OK

Track 3

Filename C:\03- Prends ce que tu veux.wav

Peak level 98.0 %
Extraction speed 2.3 X
Track quality 100.0 %
Copy CRC B1F1EA5E
Track not present in AccurateRip database
Copy OK

Track 4

Filename C:\04- Anna.wav

Peak level 98.6 %
Extraction speed 2.3 X
Track quality 100.0 %
Copy CRC 5760C765
Track not present in AccurateRip database
Copy OK

Track 5

Filename C:\05- J'suis parti de chez mes Parents.wav

Peak level 97.5 %
Extraction speed 2.4 X
Track quality 100.0 %
Copy CRC 3E081DBD
Track not present in AccurateRip database
Copy OK

Track 6

Filename C:\06- Facile.wav

Peak level 97.6 %
Extraction speed 2.5 X
Track quality 100.0 %
Copy CRC 2D813FA8
Track not present in AccurateRip database
Copy OK

Track 7

Filename C:\07- Un Peu de ton Amour.wav

Peak level 98.7 %
Extraction speed 2.8 X
Track quality 100.0 %
Copy CRC E8B693BD
Track not present in AccurateRip database
Copy OK

Track 8

Filename C:\08- Ploum Ploum.wav

Peak level 97.4 %
Extraction speed 2.8 X
Track quality 100.0 %
Copy CRC BE86173C
Track not present in AccurateRip database
Copy OK

Track 9

Filename C:\09- Pourquoi n'essaies tu pas.wav

Peak level 98.4 %
Extraction speed 3.0 X
Track quality 100.0 %
Copy CRC 0534F3DE
Track not present in AccurateRip database
Copy OK

Track 10

Filename C:\10- Seul.wav

Peak level 97.6 %
Extraction speed 3.3 X
Track quality 100.0 %
Copy CRC AA6B446F
Track not present in AccurateRip database
Copy OK

Track 11

Filename C:\11- Laisse Tomber.wav

Peak level 98.3 %
Extraction speed 3.5 X
Track quality 100.0 %
Copy CRC BB940252
Track not present in AccurateRip database
Copy OK

Track 12

Filename C:\12- Les Ils et les Ons.wav

Peak level 98.7 %
Extraction speed 3.5 X
Track quality 100.0 %
Copy CRC 736AE8BB
Track not present in AccurateRip database
Copy OK

Track 13

Filename C:\13- Le Garcon d'Ascenseur.wav

Peak level 98.6 %
Extraction speed 3.7 X
Track quality 100.0 %
Copy CRC BE6C42A4
Track not present in AccurateRip database
Copy OK

Track 14

Filename C:\14- Ordinaire.wav

Peak level 97.9 %
Extraction speed 3.5 X
Track quality 100.0 %
Copy CRC DD32DF5B
Track not present in AccurateRip database
Copy OK

Track 15

Filename C:\15- La Laisse.wav

Peak level 98.8 %
Extraction speed 3.7 X
Track quality 100.0 %
Copy CRC 93A4A490
Track not present in AccurateRip database
Copy OK

Track 16

Filename C:\16- Serrez.wav

Peak level 98.5 %
Extraction speed 4.0 X
Track quality 100.0 %
Copy CRC 9FA09180
Track not present in AccurateRip database
Copy OK

Track 17

Filename C:\17- Le Temps.wav

Peak level 98.6 %
Extraction speed 4.1 X
Track quality 100.0 %
Copy CRC 25866704
Track not present in AccurateRip database
Copy OK

Track 18

Filename C:\18- Juste un Autre Genre.wav

Peak level 97.7 %
Extraction speed 4.2 X
Track quality 100.0 %
Copy CRC 938048EA
Track not present in AccurateRip database
Copy OK


None of the tracks are present in the AccurateRip database

No errors occurred

End of status report

–– CUETools DB Plugin V2.1.6

[CTDB TOCID: UWx6zN5UxXoZendgnzZk4qOx32M-] found
Submit result: already submitted
Track | CTDB Status
1 | (13/13) Accurately ripped
2 | (13/13) Accurately ripped
3 | (13/13) Accurately ripped
4 | (13/13) Accurately ripped
5 | (13/13) Accurately ripped
6 | (13/13) Accurately ripped
7 | (13/13) Accurately ripped
8 | (13/13) Accurately ripped
9 | (13/13) Accurately ripped
10 | (13/13) Accurately ripped
11 | (13/13) Accurately ripped
12 | (13/13) Accurately ripped
13 | (13/13) Accurately ripped
14 | (13/13) Accurately ripped
15 | (13/13) Accurately ripped
16 | (13/13) Accurately ripped
17 | (13/13) Accurately ripped
18 | (13/13) Accurately ripped


==== Log checksum D379CBAABF063A1DCE4CC766108FD2CCAB0C5B085CCA059D897627E48C86649C ====


Les Insus - Live (2017) {3 CD Set Parlophone - 0190295802677}



===