Subcategories

Level 42 - Classic Level 42: The Universal Masters Collection (1999)

Posted By: SuniR
Level 42 - Classic Level 42: The Universal Masters Collection (1999)

Level 42 - Classic Level 42: The Universal Masters Collection (1999)
EAC | FLAC (log,image+cue) -> 560 Mb (5% Rec.)
Mp3 CBR320 Kbps -> 202 Mb (5% Rec.) | Scans included
Pop Rock, New Wave, Synth-pop | Label: Polydor / Universal Music, #:543 411-2 | 01:15:30

Classic Level 42 - 16-track CD album issued as part of Universals Masters Collection series including the all-time classics Something About You Running In The Family and To Be With You Again.

Tracklist:

01. Something About You 04:25
02. To Be With You Again 05:17
03. Running In The Family 06:06
04. Hot Water 03:34
05. You Can't Blame Louis 05:05
06. Tracie 04:48
07. Last Chance 04:30
08. (Flying On The) Wings Of Love 03:49
09. So Dance On Heavy Weather 04:29
10. Take A look 04:41
11. Love Games 04:26
12. Seven Days 04:23
13. Staring At The Sun 04:41
14. It's Not The Same For Us 04:36
15. Two Solitudes 05:33
16. Leaving Me Now 05:00

Exact Audio Copy V1.0 beta 3 from 29. August 2011

EAC extraction logfile from 8. July 2014, 12:46

Level 42 / Classic (The Universal Masters Collection)

Used drive : Optiarc DVD RW AD-5170A Adapter: 0 ID: 0

Read mode : Secure
Utilize accurate stream : Yes
Defeat audio cache : Yes
Make use of C2 pointers : No

Read offset correction : 48
Overread into Lead-In and Lead-Out : No
Fill up missing offset samples with silence : Yes
Delete leading and trailing silent blocks : No
Null samples used in CRC calculations : Yes
Used interface : Installed external ASPI interface

Used output format : User Defined Encoder
Selected bitrate : 1024 kBit/s
Quality : High
Add ID3 tag : No
Command line compressor : C:\MMProgram\Exact Audio Copy\FLAC\FLAC.EXE
Additional command line options : -6 -V -T "ARTIST=%artist%" -T "TITLE=%title%" -T "ALBUM=%albumtitle%" -T "DATE=%year%" -T "TRACKNUMBER=%tracknr%" -T "GENRE=%genre%" -T "COMMENT=%comment%" -T "BAND=%albuminterpret%" -T "ALBUMARTIST=%albuminterpret%" -T "COMPOSER=%composer%" %haslyrics%–tag-from-file=LYRICS="%lyricsfile%"%haslyrics% -T "DISCNUMBER=%cdnumber%" -T "TOTALDISCS=%totalcds%" -T "TOTALTRACKS=%numtracks%" %hascover%–picture="%coverfile%"%hascover% %source% -o %dest%


TOC of the extracted CD

Track | Start | Length | Start sector | End sector
––––––––––––––––––––––––––––-
1 | 0:00.00 | 4:25.47 | 0 | 19921
2 | 4:25.47 | 5:17.45 | 19922 | 43741
3 | 9:43.17 | 6:06.60 | 43742 | 71251
4 | 15:50.02 | 3:34.53 | 71252 | 87354
5 | 19:24.55 | 5:05.02 | 87355 | 110231
6 | 24:29.57 | 4:48.53 | 110232 | 131884
7 | 29:18.35 | 4:30.12 | 131885 | 152146
8 | 33:48.47 | 3:49.53 | 152147 | 169374
9 | 37:38.25 | 4:29.20 | 169375 | 189569
10 | 42:07.45 | 4:41.20 | 189570 | 210664
11 | 46:48.65 | 4:26.72 | 210665 | 230686
12 | 51:15.62 | 4:23.00 | 230687 | 250411
13 | 55:38.62 | 4:41.33 | 250412 | 271519
14 | 60:20.20 | 4:36.17 | 271520 | 292236
15 | 64:56.37 | 5:33.05 | 292237 | 317216
16 | 70:29.42 | 5:00.25 | 317217 | 339741


Range status and errors

Selected range

Filename D:\mm\Level42\1999 - Classic (The Universal Masters Collection} [543 411-2]\Level 42 - Classic (The Universal Masters Collection).wav

Peak level 99.3 %
Extraction speed 1.6 X
Range quality 100.0 %
Test CRC 55109EDE
Copy CRC 55109EDE
Copy OK

No errors occurred


AccurateRip summary

Track 1 accurately ripped (confidence 3) [2484020B] (AR v2)
Track 2 accurately ripped (confidence 3) [9352B1AB] (AR v2)
Track 3 accurately ripped (confidence 3) [70A836E1] (AR v2)
Track 4 accurately ripped (confidence 3) [F246C9E8] (AR v2)
Track 5 accurately ripped (confidence 3) [B5EDE768] (AR v2)
Track 6 accurately ripped (confidence 3) [BF1969D9] (AR v2)
Track 7 accurately ripped (confidence 3) [64DC901D] (AR v2)
Track 8 accurately ripped (confidence 3) [15557128] (AR v2)
Track 9 accurately ripped (confidence 3) [8B178D00] (AR v2)
Track 10 accurately ripped (confidence 3) [3B707C69] (AR v2)
Track 11 accurately ripped (confidence 3) [48AEFC5A] (AR v2)
Track 12 accurately ripped (confidence 3) [6EE873C6] (AR v2)
Track 13 accurately ripped (confidence 3) [3E4F0F0B] (AR v2)
Track 14 accurately ripped (confidence 3) [B429E57F] (AR v2)
Track 15 accurately ripped (confidence 3) [4C22E986] (AR v2)
Track 16 accurately ripped (confidence 3) [7FBFB8C0] (AR v2)

All tracks accurately ripped

End of status report

foobar2000 1.3.6 / Dynamic Range Meter 1.1.1
log date: 2017-11-04 21:35:24

––––––––––––––––––––––––––––––––––––––––
Analyzed: Level 42 / Classic (The Universal Masters Collection)
––––––––––––––––––––––––––––––––––––––––

DR Peak RMS Duration Track
––––––––––––––––––––––––––––––––––––––––
DR12 -0.10 dB -13.54 dB 4:26 01-Something About You
DR11 -0.10 dB -12.69 dB 5:18 02-To Be With You Again
DR12 -0.10 dB -14.27 dB 6:07 03-Running In The Family
DR12 -0.13 dB -13.37 dB 3:35 04-Hot Water
DR12 -0.10 dB -14.01 dB 5:05 05-You Can't Blame Louis
DR15 -0.10 dB -16.61 dB 4:49 06-Tracie
DR12 -0.10 dB -13.89 dB 4:30 07-Last Chance
DR12 -0.10 dB -13.73 dB 3:50 08-(Flying On The) Wings Of Love
DR11 -0.06 dB -13.23 dB 4:29 09-Dance On Heavy Weather
DR10 -0.10 dB -13.71 dB 4:41 10-Take A look
DR11 -0.10 dB -12.84 dB 4:27 11-Love Games
DR13 -0.10 dB -15.02 dB 4:23 12-Seven Days
DR12 -0.63 dB -15.42 dB 4:41 13-Staring At The Sun
DR12 -0.10 dB -13.49 dB 4:36 14-It's Not The Same For Us
DR11 -0.10 dB -13.41 dB 5:33 15-Two Solitudes
DR12 -0.10 dB -14.07 dB 5:00 16-Leaving Me Now
––––––––––––––––––––––––––––––––––––––––

Number of tracks: 16
Official DR value: DR12

Samplerate: 44100 Hz
Channels: 2
Bits per sample: 16
Bitrate: 940 kbps
Codec: FLAC
================================================================================

Thanks to the original releaser sergych