Subcategories

Dave Liebman & Lewis Porter - Surreality (2012) {Enja}

Posted By: ruskaval
Dave Liebman & Lewis Porter - Surreality (2012) {Enja}

Dave Liebman & Lewis Porter - Surreality (2012) {Enja}
EAC rip (secure mode) | FLAC (tracks)+CUE+LOG -> 346 Mb | MP3 @320 -> 132 Mb
Full Artwork @ 300 dpi (png) -> 44 Mb | 5% repair rar
© 2012 Enja / Yellowbird | enja 7727 2
Jazz / Modern Creative / Saxophone

David Liebman is considered a renaissance man in contemporary music with a career stretching over forty years. He has played with many of the masters including Miles Davis, Chick Corea, John McLaughlin and others; what makes "Surreality" different from his many other releases is intensity created by the meeting with Marc Ribot, Brad Jones, Chad Taylor and Lewis Porter. Uncompromising tribute to the masters.
The brilliant US sax improviser Dave Liebman and pianist Lewis Porter had been collaborating on Liebman's autobiography when they hatched this plan for an album with unfamiliar partners: Tom Waits guitarist Marc Ribot, bassist Brad Jones and drummer Chad Taylor. Tributes to Ornette Coleman, Albert Ayler and Olivier Messiaen figure, and the band gels fast for a shot-in-the-dark collaboration, even if Taylor's fierce drumming could have receded in the mix a little. Porter plays electric keys on his Messiaen tribute, which shifts from churning wah-wah sounds and brittle percussion reminiscent of Bitches Brew, through melodically intricate improvisations from Ribot, Porter and Liebman on soprano. The medley Omega Is the Alpha and Ghosts catches both Albert Ayler's street-march exuberance and sermonising power; Ornette Coleman's Trigonometry is a playful group conversation; and Get Me Back to the Apple is headlong contemporary bebop. There are two all-improv ballad sections of compelling shapeliness, with the remarkable Ribot a crucial guiding influence in both. Liebman's albums can sound, positively and negatively, like spur-of-the-moment ventures, but he's a saxophone master and in good, provocative company here.

Personnel:
Dave Liebman - saxophones
Lewis Porter - piano
Marc Ribot - guitars
Brad Jones - bass
Chad Taylor - drums

tracklist:
01. Olivier (Lewis Porter)
02. Untitled Free Ballad 1
03. Omega is the Alpha / Ghosts (Albert Ayler)
04. Trigonometry (Ornette Coleman / Pat Metheny)
05. Surreality (Dave Liebman)
06. Untitled Free Ballad 2
07. Get Me Back to the Apple ( Dave Liebman )
08. Alabama (John Coltrane)

Exact Audio Copy V1.0 beta 3 from 29. August 2011

EAC extraction logfile from 13. April 2013, 15:15

Dave Liebman & Lewis Porter / Surreality

Used drive : PLEXTOR DVDR PX-860A Adapter: 0 ID: 0

Read mode : Secure
Utilize accurate stream : Yes
Defeat audio cache : Yes
Make use of C2 pointers : No

Read offset correction : 96
Overread into Lead-In and Lead-Out : No
Fill up missing offset samples with silence : Yes
Delete leading and trailing silent blocks : No
Null samples used in CRC calculations : Yes
Used interface : Native Win32 interface for Win NT & 2000
Gap handling : Appended to previous track

Used output format : User Defined Encoder
Selected bitrate : 1024 kBit/s
Quality : High
Add ID3 tag : No
Command line compressor : C:\Program Files\Exact Audio Copy\Flac\flac.exe
Additional command line options : -8 -V -T "ARTIST=%artist%" -T "TITLE=%title%" -T "ALBUM=%albumtitle%" -T "DATE=%year%" -T "TRACKNUMBER=%tracknr%" -T "GENRE=%genre%" -T "PERFORMER=%albuminterpret%" -T "COMPOSER=%composer%" %haslyrics%–tag-from-file=LYRICS="%lyricsfile%"%haslyrics% -T "ALBUMARTIST=%albumartist%" -T "DISCNUMBER=%cdnumber%" -T "TOTALDISCS=%totalcds%" -T "TOTALTRACKS=%numtracks%" -T "COMMENT=EAC Secure Mode, Test & Copy, AccurateRip, FLAC -8" %source% -o %dest%


TOC of the extracted CD

Track | Start | Length | Start sector | End sector
––––––––––––––––––––––––––––-
1 | 0:00.00 | 8:57.63 | 0 | 40337
2 | 8:57.63 | 6:17.63 | 40338 | 68675
3 | 15:15.51 | 7:52.51 | 68676 | 104126
4 | 23:08.27 | 5:57.67 | 104127 | 130968
5 | 29:06.19 | 5:51.71 | 130969 | 157364
6 | 34:58.15 | 5:31.00 | 157365 | 182189
7 | 40:29.15 | 6:59.40 | 182190 | 213654
8 | 47:28.55 | 7:40.28 | 213655 | 248182


Track 1

Filename O:\DL\Dave Liebman & Lewis Porter - Surreality (2012) [FLAC]\01 - Olivier.wav

Pre-gap length 0:00:02.00

Peak level 100.0 %
Extraction speed 4.8 X
Track quality 99.9 %
Test CRC 4C7DD7FF
Copy CRC 4C7DD7FF
Track not present in AccurateRip database
Copy OK

Track 2

Filename O:\DL\Dave Liebman & Lewis Porter - Surreality (2012) [FLAC]\02 - Untitled Free Ballad 1.wav

Peak level 100.0 %
Extraction speed 5.3 X
Track quality 99.9 %
Test CRC DC9CB786
Copy CRC DC9CB786
Track not present in AccurateRip database
Copy OK

Track 3

Filename O:\DL\Dave Liebman & Lewis Porter - Surreality (2012) [FLAC]\03 - Albert Ayler Tribute.wav

Peak level 100.0 %
Extraction speed 6.5 X
Track quality 100.0 %
Test CRC 84B32DFD
Copy CRC 84B32DFD
Track not present in AccurateRip database
Copy OK

Track 4

Filename O:\DL\Dave Liebman & Lewis Porter - Surreality (2012) [FLAC]\04 - Trigonometry.wav

Peak level 100.0 %
Extraction speed 6.3 X
Track quality 99.9 %
Test CRC EFD99FCC
Copy CRC EFD99FCC
Track not present in AccurateRip database
Copy OK

Track 5

Filename O:\DL\Dave Liebman & Lewis Porter - Surreality (2012) [FLAC]\05 - Surreality.wav

Peak level 100.0 %
Extraction speed 7.3 X
Track quality 100.0 %
Test CRC 276ECC83
Copy CRC 276ECC83
Track not present in AccurateRip database
Copy OK

Track 6

Filename O:\DL\Dave Liebman & Lewis Porter - Surreality (2012) [FLAC]\06 - Untitled FreeBallad 2.wav

Peak level 100.0 %
Extraction speed 6.9 X
Track quality 99.9 %
Test CRC 6C0DA84C
Copy CRC 6C0DA84C
Track not present in AccurateRip database
Copy OK

Track 7

Filename O:\DL\Dave Liebman & Lewis Porter - Surreality (2012) [FLAC]\07 - Get Me Back To The Apple.wav

Peak level 100.0 %
Extraction speed 8.0 X
Track quality 100.0 %
Test CRC E6083539
Copy CRC E6083539
Track not present in AccurateRip database
Copy OK

Track 8

Filename O:\DL\Dave Liebman & Lewis Porter - Surreality (2012) [FLAC]\08 - Alabama.wav

Peak level 100.0 %
Extraction speed 8.5 X
Track quality 100.0 %
Test CRC FF167EC2
Copy CRC FF167EC2
Track not present in AccurateRip database
Copy OK


None of the tracks are present in the AccurateRip database

No errors occurred

End of status report

–– CUETools DB Plugin V2.1.3

[CTDB TOCID: nT6588kkjxYXcw3HBUUGCFxgCK4-] disk not present in database, Submit result: nT6588kkjxYXcw3HBUUGCFxgCK4- has been uploaded


==== Log checksum 8083BD1463D5B2E1E8A3943DAC39D0349419E24473EC48EDD8F32DADCFF00143 ====


Dave Liebman & Lewis Porter - Surreality (2012) {Enja}

Dave Liebman & Lewis Porter - Surreality (2012) {Enja}


Thanks to dtromp!