Subcategories

Liederjan - Volksmusik aus der heilen Welt (Membran 203448-208) (GER 2003,1979)

Posted By: luckburz
Liederjan - Volksmusik aus der heilen Welt (Membran 203448-208) (GER 2003,1979)

Liederjan - Volksmusik aus der heilen Welt
FLAC | LOG & CUE | Artwork | Size: 299 MB
Cat#: Membran 203448-208 | Country/Year: Germany 1979, 2003

MD5 [] FFP [] CUE [X] LOG [X] INFO TEXT [X] ARTWORK [X]

webfind [] selfrip [X]

Extraction Log:

Exact Audio Copy V0.99 prebeta 5 from 4. May 2009

EAC extraction logfile from 29. May 2010, 20:56

Liederjan - Volksmusik aus der heilen Welt / Volksmusik aus der heilen Welt

Used drive : TSSTcorpDVD+-RW TS-T633A Adapter: 0 ID: 1

Read mode : Secure
Utilize accurate stream : Yes
Defeat audio cache : Yes
Make use of C2 pointers : No

Read offset correction : 6
Overread into Lead-In and Lead-Out : No
Fill up missing offset samples with silence : Yes
Delete leading and trailing silent blocks : No
Null samples used in CRC calculations : Yes
Used interface : Native Win32 interface for Win NT & 2000
Gap handling : Appended to previous track

Used output format : User Defined Encoder
Selected bitrate : 1024 kBit/s
Quality : High
Add ID3 tag : Yes
Command line compressor : C:\Programme\FLAC\flac.exe
Additional command line options : -5 -T "Artist=%a" -T "Title=%t" -T "Album=%g" -T "Date=%y" -T "Tracknumber=%n" -T "Genre=%m" %s -o %d


TOC of the extracted CD

Track | Start | Length | Start sector | End sector
––––––––––––––––––––––––––––-
1 | 0:00.00 | 3:11.69 | 0 | 14393
2 | 3:11.69 | 3:41.67 | 14394 | 31035
3 | 6:53.61 | 3:16.14 | 31036 | 45749
4 | 10:10.00 | 3:34.08 | 45750 | 61807
5 | 13:44.08 | 3:54.62 | 61808 | 79419
6 | 17:38.70 | 3:00.65 | 79420 | 92984
7 | 20:39.60 | 2:25.56 | 92985 | 103915
8 | 23:05.41 | 3:49.12 | 103916 | 121102
9 | 26:54.53 | 2:27.53 | 121103 | 132180
10 | 29:22.31 | 3:50.37 | 132181 | 149467
11 | 33:12.68 | 4:22.58 | 149468 | 169175


Track 1

Filename C:\Users\Annina\Desktop\Neuer Ordner\01 - Schlemmerlied .wav

Pre-gap length 0:00:02.00

Peak level 86.6 %
Track quality 99.9 %
Test CRC 6AC67CB9
Copy CRC 6AC67CB9
Accurately ripped (confidence 2) [AC14CAB3]
Copy OK

Track 2

Filename C:\Users\Annina\Desktop\Neuer Ordner\02 - Der Diestelbaum .wav

Pre-gap length 0:00:02.00

Peak level 93.7 %
Track quality 100.0 %
Test CRC 0F826E1D
Copy CRC 0F826E1D
Accurately ripped (confidence 2) [953275B1]
Copy OK

Track 3

Filename C:\Users\Annina\Desktop\Neuer Ordner\03 - Bauer und Kalb .wav

Pre-gap length 0:00:02.00

Peak level 98.5 %
Track quality 100.0 %
Test CRC 16E28BE1
Copy CRC 16E28BE1
Accurately ripped (confidence 2) [E4A60851]
Copy OK

Track 4

Filename C:\Users\Annina\Desktop\Neuer Ordner\04 - Der Lumpensammler .wav

Pre-gap length 0:00:02.00

Peak level 92.1 %
Track quality 100.0 %
Test CRC 72C697A8
Copy CRC 72C697A8
Accurately ripped (confidence 2) [E44F0CB4]
Copy OK

Track 5

Filename C:\Users\Annina\Desktop\Neuer Ordner\05 - Schnitter Tod .wav

Pre-gap length 0:00:02.00

Peak level 100.0 %
Track quality 100.0 %
Test CRC A96B81A9
Copy CRC A96B81A9
Accurately ripped (confidence 2) [19F1311E]
Copy OK

Track 6

Filename C:\Users\Annina\Desktop\Neuer Ordner\06 - Tripp - Trapp .wav

Pre-gap length 0:00:02.00

Peak level 100.0 %
Track quality 100.0 %
Test CRC C3509754
Copy CRC C3509754
Accurately ripped (confidence 2) [22E1424E]
Copy OK

Track 7

Filename C:\Users\Annina\Desktop\Neuer Ordner\07 - Auf dem Tanzboden .wav

Pre-gap length 0:00:02.00

Peak level 100.0 %
Track quality 100.0 %
Test CRC 500F83C0
Copy CRC 500F83C0
Accurately ripped (confidence 2) [CE07933E]
Copy OK

Track 8

Filename C:\Users\Annina\Desktop\Neuer Ordner\08 - Auswandererlied .wav

Pre-gap length 0:00:02.00

Peak level 100.0 %
Track quality 100.0 %
Test CRC 94174DF8
Copy CRC 94174DF8
Accurately ripped (confidence 2) [59D539BF]
Copy OK

Track 9

Filename C:\Users\Annina\Desktop\Neuer Ordner\09 - Michels Abendlied .wav

Pre-gap length 0:00:02.00

Peak level 100.0 %
Track quality 100.0 %
Test CRC E1C19CA4
Copy CRC E1C19CA4
Accurately ripped (confidence 2) [6E002496]
Copy OK

Track 10

Filename C:\Users\Annina\Desktop\Neuer Ordner\10 - Stempellied .wav

Pre-gap length 0:00:02.00

Peak level 92.2 %
Track quality 100.0 %
Test CRC DA2466F3
Copy CRC DA2466F3
Accurately ripped (confidence 2) [CA805CBA]
Copy OK

Track 11

Filename C:\Users\Annina\Desktop\Neuer Ordner\11 - Dr. Severing .wav

Pre-gap length 0:00:02.00

Peak level 100.0 %
Track quality 100.0 %
Test CRC 15866A8A
Copy CRC 15866A8A
Accurately ripped (confidence 2) [A0E8B686]
Copy OK


All tracks accurately ripped

No errors occurred

End of status report


CD Info:

Liederjan - Volksmusik Aus Der Heilen Welt

Label: Membran Music Ltd.
Catalog#: 203448-208
Format: CD, Album
Country: Germany
Released: 2003
Genre: Folk, World, & Country
Style: Folk

Tracklist:

1 Schlemmerlied 3:11
2 Der Distelbaum 3:41
3 Bauer Und Kalb 3:16
4 Der Lumpensammler 3:34
5 Schnitter Tod 3:54
6 Tripp-Trapp 3:00
7 Auf Dem Tanzboden 2:25
8 Auswandererlied 3:49
9 Michels Abendlied 2:27
10 Stempellied 3:50
11 Dr. Severing 4:22

Credits:

Arranged By - Jörg Ermisch
Engineer - Conny Plank
Producer - Liederjan

Barcode: 4 011222 034489

Discogs Url: http://www.discogs.com/release/2298919

Samples: http://www.liederjan.com/Diskographie.htm




Band Info:

Liederjan ist eine norddeutsche Folkgruppe. Die irische Volkslieder singende Gruppe Tramps & Hawkers orientierte sich zu Beginn der 1970er Jahre hin zu deutschen Volksliedern. Daraus ging 1975 die Gruppe Liederjan hervor.

Dabei sang die Gruppe nicht das altbekannte Liedgut, sondern fast vergessene Lieder. Später textete und komponierte Liederjan eigene Lieder. Dabei verwendet das Trio teils sehr ungewöhnliche Zupf- und Streichinstrumente und pflegt den Satzgesang.

1985 wurde Liederjan mit dem Deutschen Kleinkunstpreis ausgezeichnet.

Von gelegentlichen Mitwirken verschiedener Gastmusiker bei ihren Plattenproduktionen abgesehen, bildete Liederjan immer ein Trio, das sich zur Gründung aus Anselm Noffke, Jörg Ermisch, und Jochen Wiegandt zusammensetzte. Während die ersten beiden mehr als 25 Jahre lang den festen Kern bildeten, wurde der „dritte Mann“ im Laufe der Zeit mehrfach ausgewechselt. So spielten mit Liederjan Rainer Prüss, Edzard Wagenaar, Wolfgang Rieck, Jürgen Leo, Klaus Irmscher und aktuell Michael Lempelius.

Durch den Tod von Anselm Noffke am 14. Dezember 2003 verlor die Gruppe drei Jahre nach ihrem 25-jährigen Bühnenjubiläum einen ihrer beiden verbliebenen Gründer. Auf seinen Wunsch und dem seiner damaligen Mitspieler machte Liederjan aber weiter. Den Platz Anselm Noffkes in dem Trio nahm mit Hanne Balzer zum ersten Mal in der Geschichte der Gruppe eine Frau ein, so dass die vorher aufgekommene scherzhafte Bezeichnung „Älteste Boygroup Deutschlands“ ihre Grundlage verlor.

In dieser Zusammensetzung feierte der laut aktueller Selbstbezeichnung „Musikalische Fachbetrieb seit längerem“ Liederjan im Oktober 2005 in Hamburg sein 30-jähriges Bühnenjubiläum. wikipedia



Format:

Flac (Level 8)

Links:

[rapidshare.com/200 MB Splits]

Part 1
Part 2

Mirror:

[share.cx/200 MB Splits]

Part 1
Part 2


Password:

finest-hq-audio

Check my blog for other lossless uploads:

http://www.avaxhome.ws/blogs/luckburz



MIRRORS ARE WELCOME BUT NOT ON RAPIDSHARE! Thanks.