Subcategories
Tags
Language
Tags

Liszt - Complete Symphonic Poems. London Philharmonic Orchestra / Bernard Haitink (1969-72) [4CD] {2010 Decca Edition}

Posted By: ruskaval
Liszt - Complete Symphonic Poems. London Philharmonic Orchestra / Bernard Haitink (1969-72) [4CD] {2010 Decca Edition}

Liszt - Complete Symphonic Poems. London Philharmonic Orchestra / Bernard Haitink (1969-72) [4CD] {2010 Decca Edition}
EAC rip (secure mode) | FLAC (tracks)+CUE+LOG -> 1.22 Gb | MP3 @320 -> 619 Mb
Full Artwork @ 300 dpi (png) -> 113 Mb | 5% repair rar
© 2010 Decca / UMG | 478 2309
Classical / Orchestral / Symphony / Tone Poem

At one point back in the days of LPs it seemed that conductor Bernard Haitink was waging an Ormandy-like campaign to record all of the Western orchestral literature for Philips. Moreover, for many listeners this was a welcome pursuit because Haitink was so good at so many things; his 1973 recording of Stravinsky's Le Sacre du printemps is still considered one of the most superlative readings of the work, even though Haitink's catalog ultimately grew to the extent that it became difficult to single out what was best within it. One of his signature achievements, however, was his complete recording of the symphonic poems of Franz Liszt; Haitink was the first conductor to record all 10 of these works and likewise first to record in stereo the earliest symphonic poem in the cycle Ce qu'on entend sur la montagne (1848-1854). Initially issued as single LPs in 1972 as a five-LP box set, Haitink's cycle made its digital debut as two separate CDs as Philips' Duos; economical, but in generic packages that would hardly stand out from the crowd. Decca's four-disc box, Liszt: Complete Symphonic Poems is a huge improvement over the Philips Duos; it has an attractive design, some freshly written liner notes that are brief but serviceable, and even at full-price it costs only two-thirds of what buying both Philips Duos costs in order to get the complete set.
Liszt - Complete Symphonic Poems. London Philharmonic Orchestra / Bernard Haitink (1969-72) [4CD] {2010 Decca Edition}

Liszt - Complete Symphonic Poems. London Philharmonic Orchestra / Bernard Haitink (1969-72) [4CD] {2010 Decca Edition}

At the time Haitink was undertaking this cycle, the jury was still out on the relative value of Liszt's orchestral music, though Les Preludes and Mephisto Waltz No. 1 – both included on this set – had always remained popular favorites; just a decade before, Leonard Bernstein had gotten the ball rolling through recording the Faust symphony for CBS; it would not be long before Herbert von Karajan discovered Tasso, Lamento e Trionfo to his liking. By the 21st century, all of Liszt's symphonic poems are regarded as major romantic orchestral literature and each of the 10 has something unique to offer, even if we do not remember Mazeppa or Die Ideale as readily as we do Les Preludes. The Haitink cycle of Liszt's symphonic poems, recorded between 1968 and 1972, was considered state-of-the-art in terms of recording quality back then and still sound terrific on CD. If one is familiar with romantic orchestral literature such as Brahms, Berlioz, or Tchaikovsky, then Liszt's symphonic poems will be a revelation to you; they stand halfway between French and German traditions, and this package from Decca is certainly one of the best available in a qualitative sense, and the asking price is certainly modest.

Personnel:
London Philharmonic Orchestra
conductor Bernard Haitink

tracklist:
CD1

01. Ce qu'on entend sur la montagne, S. 95
02. Tasso, Lamento e Triofo, S. 96
03. Les Préludes, S. 97

CD2
01. Orpheus, S. 98
02. Prometheus, S. 99
03. Mazeppa, S. 100
04. Festklänge, S. 101

CD3
01. Héroïde funèbre, S. 102
02. Hungaria, S. 103
03. Hamlet, S. 104

CD4
01. Hunnenschlacht, S. 105
02. Die Ideale, S. 106
03. Von der Wiege bis zum Grabe, S. 107
04. Mephisto Waltz No. 1, S. 110

Exact Audio Copy V1.0 beta 3 from 29. August 2011

EAC extraction logfile from 12. May 2013, 16:58

Liszt / Complete Symphonic Poems - London Philharmonic Orchestra, Bernard Haitink

Used drive : PLEXTOR CD-R PREMIUM2 Adapter: 3 ID: 1

Read mode : Secure
Utilize accurate stream : Yes
Defeat audio cache : Yes
Make use of C2 pointers : No

Read offset correction : 30
Overread into Lead-In and Lead-Out : Yes
Fill up missing offset samples with silence : Yes
Delete leading and trailing silent blocks : No
Null samples used in CRC calculations : Yes
Used interface : Installed external ASPI interface
Gap handling : Appended to previous track

Used output format : User Defined Encoder
Selected bitrate : 1024 kBit/s
Quality : High
Add ID3 tag : No
Command line compressor : C:\Program Files\Exact Audio Copy\Flac\flac.exe
Additional command line options : -6 -V -T "ARTIST=%artist%" -T "TITLE=%title%" -T "ALBUM=%albumtitle%" -T "DATE=%year%" -T "PERFORMER=%albuminterpret%" -T "TRACKNUMBER=%tracknr%" -T "TOTALTRACKS=%numtracks%" -T "GENRE=%genre%" -T "COMPOSER=%composer%" -T "ALBUMARTIST=%albumartist%" -T "ALBUM ARTIST=%albumartist%" -T "COMMENT=EAC Secure Mode, Test & Copy, AccurateRip, FLAC -6" %source%


TOC of the extracted CD

Track | Start | Length | Start sector | End sector
––––––––––––––––––––––––––––-
1 | 0:00.32 | 30:43.00 | 32 | 138256
2 | 30:43.32 | 20:57.00 | 138257 | 232531
3 | 51:40.32 | 15:03.00 | 232532 | 300256


Track 1

Filename D:\EAC extraction\01 - Ce qu'on entend sur la montagne.wav

Pre-gap length 0:00:02.32

Peak level 99.1 %
Extraction speed 1.5 X
Track quality 100.0 %
Test CRC 83807C4B
Copy CRC 83807C4B
Accurately ripped (confidence 3) [4454C7A3] (AR v2)
Copy OK

Track 2

Filename D:\EAC extraction\02 - Tasso, Lamento e Trionfo.wav

Pre-gap length 0:00:09.00

Peak level 97.7 %
Extraction speed 1.5 X
Track quality 100.0 %
Test CRC 4126DF95
Copy CRC 4126DF95
Accurately ripped (confidence 3) [B5B9D02B] (AR v2)
Copy OK

Track 3

Filename D:\EAC extraction\03 - Les Preludes.wav

Pre-gap length 0:00:11.00

Peak level 89.2 %
Extraction speed 1.5 X
Track quality 100.0 %
Test CRC 4FE6F5A3
Copy CRC 4FE6F5A3
Accurately ripped (confidence 3) [4BD24C85] (AR v2)
Copy OK


All tracks accurately ripped

No errors occurred

End of status report

==== Log checksum BB966FFB57D6DBE54CE5484B4519BE78D3E0E7E0D0210A8387AF2F0473F7C764 ====

Exact Audio Copy V1.0 beta 3 from 29. August 2011

EAC extraction logfile from 12. May 2013, 19:56

Liszt / Complete Symphonic Poems - London Philharmonic Orchestra, Bernard Haitink

Used drive : PLEXTOR CD-R PREMIUM2 Adapter: 3 ID: 1

Read mode : Secure
Utilize accurate stream : Yes
Defeat audio cache : Yes
Make use of C2 pointers : No

Read offset correction : 30
Overread into Lead-In and Lead-Out : Yes
Fill up missing offset samples with silence : Yes
Delete leading and trailing silent blocks : No
Null samples used in CRC calculations : Yes
Used interface : Installed external ASPI interface
Gap handling : Appended to previous track

Used output format : User Defined Encoder
Selected bitrate : 1024 kBit/s
Quality : High
Add ID3 tag : No
Command line compressor : C:\Program Files\Exact Audio Copy\Flac\flac.exe
Additional command line options : -6 -V -T "ARTIST=%artist%" -T "TITLE=%title%" -T "ALBUM=%albumtitle%" -T "DATE=%year%" -T "PERFORMER=%albuminterpret%" -T "TRACKNUMBER=%tracknr%" -T "TOTALTRACKS=%numtracks%" -T "GENRE=%genre%" -T "COMPOSER=%composer%" -T "ALBUMARTIST=%albumartist%" -T "ALBUM ARTIST=%albumartist%" -T "COMMENT=EAC Secure Mode, Test & Copy, AccurateRip, FLAC -6" %source%


TOC of the extracted CD

Track | Start | Length | Start sector | End sector
––––––––––––––––––––––––––––-
1 | 0:00.33 | 11:09.00 | 33 | 50207
2 | 11:09.33 | 13:02.00 | 50208 | 108857
3 | 24:11.33 | 16:28.00 | 108858 | 182957
4 | 40:39.33 | 19:44.00 | 182958 | 271757


Track 1

Filename D:\EAC extraction\01 - Orpheus.wav

Pre-gap length 0:00:02.33

Peak level 73.0 %
Extraction speed 1.2 X
Track quality 99.9 %
Test CRC 3A5D2B88
Copy CRC 3A5D2B88
Accurately ripped (confidence 3) [D4C8F9F6] (AR v2)
Copy OK

Track 2

Filename D:\EAC extraction\02 - Prometheus.wav

Pre-gap length 0:00:09.68

Peak level 91.6 %
Extraction speed 1.2 X
Track quality 100.0 %
Test CRC F20B9B11
Copy CRC F20B9B11
Accurately ripped (confidence 3) [5ED84DE3] (AR v2)
Copy OK

Track 3

Filename D:\EAC extraction\03 - Mazeppa.wav

Pre-gap length 0:00:08.00

Peak level 97.7 %
Extraction speed 1.2 X
Track quality 99.9 %
Test CRC D390FB3B
Copy CRC D390FB3B
Accurately ripped (confidence 3) [300A4873] (AR v2)
Copy OK

Track 4

Filename D:\EAC extraction\04 - Festklange.wav

Pre-gap length 0:00:09.00

Peak level 97.7 %
Extraction speed 1.3 X
Track quality 100.0 %
Test CRC 95B00E1D
Copy CRC 95B00E1D
Accurately ripped (confidence 3) [FED4F74D] (AR v2)
Copy OK


All tracks accurately ripped

No errors occurred

End of status report

==== Log checksum 5BE4470762F27037BEBA2BAE64F4ADD509D3E1BB71BA47424295687732C8A3DB ====

Exact Audio Copy V1.0 beta 3 from 29. August 2011

EAC extraction logfile from 13. May 2013, 11:47

Liszt / Complete Symphonic Poems - London Philharmonic Orchestra, Bernard Haitink

Used drive : PLEXTOR CD-R PREMIUM2 Adapter: 3 ID: 1

Read mode : Secure
Utilize accurate stream : Yes
Defeat audio cache : Yes
Make use of C2 pointers : No

Read offset correction : 30
Overread into Lead-In and Lead-Out : Yes
Fill up missing offset samples with silence : Yes
Delete leading and trailing silent blocks : No
Null samples used in CRC calculations : Yes
Used interface : Installed external ASPI interface
Gap handling : Appended to previous track

Used output format : User Defined Encoder
Selected bitrate : 1024 kBit/s
Quality : High
Add ID3 tag : No
Command line compressor : C:\Program Files\Exact Audio Copy\Flac\flac.exe
Additional command line options : -6 -V -T "ARTIST=%artist%" -T "TITLE=%title%" -T "ALBUM=%albumtitle%" -T "DATE=%year%" -T "PERFORMER=%albuminterpret%" -T "TRACKNUMBER=%tracknr%" -T "TOTALTRACKS=%numtracks%" -T "GENRE=%genre%" -T "COMPOSER=%composer%" -T "ALBUMARTIST=%albumartist%" -T "ALBUM ARTIST=%albumartist%" -T "COMMENT=EAC Secure Mode, Test & Copy, AccurateRip, FLAC -6" %source%


TOC of the extracted CD

Track | Start | Length | Start sector | End sector
––––––––––––––––––––––––––––-
1 | 0:00.33 | 27:21.00 | 33 | 123107
2 | 27:21.33 | 23:14.00 | 123108 | 227657
3 | 50:35.33 | 13:58.00 | 227658 | 290507


Track 1

Filename D:\EAC extraction\01 - Heroide funebre.wav

Pre-gap length 0:00:02.33

Peak level 100.0 %
Extraction speed 1.6 X
Track quality 100.0 %
Test CRC 5E600402
Copy CRC 5E600402
Accurately ripped (confidence 3) [72712D93] (AR v2)
Copy OK

Track 2

Filename D:\EAC extraction\02 - Hungaria.wav

Pre-gap length 0:00:09.00

Peak level 100.0 %
Extraction speed 1.6 X
Track quality 100.0 %
Test CRC 786E2218
Copy CRC 786E2218
Accurately ripped (confidence 3) [1E5E77BB] (AR v2)
Copy OK

Track 3

Filename D:\EAC extraction\03 - Hamlet.wav

Pre-gap length 0:00:08.00

Peak level 82.6 %
Extraction speed 1.6 X
Track quality 100.0 %
Test CRC 08B08D93
Copy CRC 08B08D93
Accurately ripped (confidence 3) [D6BCA20C] (AR v2)
Copy OK


All tracks accurately ripped

No errors occurred

End of status report

==== Log checksum 54C8F72BF13F3B696603D4DC46D82AE7F82BD3D9E6EB222C38E7A4BB71592F5E ====

Exact Audio Copy V1.0 beta 3 from 29. August 2011

EAC extraction logfile from 13. May 2013, 20:53

Liszt / Complete Symphonic Poems - London Philharmonic Orchestra, Bernard Haitink

Used drive : PLEXTOR CD-R PREMIUM2 Adapter: 3 ID: 1

Read mode : Secure
Utilize accurate stream : Yes
Defeat audio cache : Yes
Make use of C2 pointers : No

Read offset correction : 30
Overread into Lead-In and Lead-Out : Yes
Fill up missing offset samples with silence : Yes
Delete leading and trailing silent blocks : No
Null samples used in CRC calculations : Yes
Used interface : Installed external ASPI interface
Gap handling : Appended to previous track

Used output format : User Defined Encoder
Selected bitrate : 1024 kBit/s
Quality : High
Add ID3 tag : No
Command line compressor : C:\Program Files\Exact Audio Copy\Flac\flac.exe
Additional command line options : -6 -V -T "ARTIST=%artist%" -T "TITLE=%title%" -T "ALBUM=%albumtitle%" -T "DATE=%year%" -T "PERFORMER=%albuminterpret%" -T "TRACKNUMBER=%tracknr%" -T "TOTALTRACKS=%numtracks%" -T "GENRE=%genre%" -T "COMPOSER=%composer%" -T "ALBUMARTIST=%albumartist%" -T "ALBUM ARTIST=%albumartist%" -T "COMMENT=EAC Secure Mode, Test & Copy, AccurateRip, FLAC -6" %source%


TOC of the extracted CD

Track | Start | Length | Start sector | End sector
––––––––––––––––––––––––––––-
1 | 0:00.33 | 15:10.00 | 33 | 68282
2 | 15:10.33 | 27:03.00 | 68283 | 190007
3 | 42:13.33 | 13:54.00 | 190008 | 252557
4 | 56:07.33 | 11:08.00 | 252558 | 302657


Track 1

Filename D:\EAC extraction\01 - Hunnenschlacht.wav

Pre-gap length 0:00:02.33

Peak level 100.0 %
Extraction speed 1.5 X
Track quality 99.9 %
Test CRC BC27AFEE
Copy CRC BC27AFEE
Accurately ripped (confidence 3) [7C99C215] (AR v2)
Copy OK

Track 2

Filename D:\EAC extraction\02 - Die Ideale.wav

Pre-gap length 0:00:12.00

Peak level 99.5 %
Extraction speed 1.6 X
Track quality 100.0 %
Test CRC 53150E79
Copy CRC 53150E79
Accurately ripped (confidence 3) [B68162D0] (AR v2)
Copy OK

Track 3

Filename D:\EAC extraction\03 - Von der Wiege bis zum Grabe.wav

Pre-gap length 0:00:10.00

Peak level 85.4 %
Extraction speed 1.5 X
Track quality 99.9 %
Test CRC B23F0C93
Copy CRC B23F0C93
Accurately ripped (confidence 2) [1B3560AC] (AR v2)
Copy OK

Track 4

Filename D:\EAC extraction\04 - Mephisto Waltz No.1.wav

Pre-gap length 0:00:07.00

Peak level 100.0 %
Extraction speed 1.6 X
Track quality 99.9 %
Test CRC 8735A412
Copy CRC 8735A412
Accurately ripped (confidence 3) [1961DA66] (AR v2)
Copy OK


All tracks accurately ripped

No errors occurred

End of status report

==== Log checksum C816D0E11C3D4AD22D8623BDA24A16DABBA947FD4CA03DCC5BF5F941940AE8AE ====


Liszt - Complete Symphonic Poems. London Philharmonic Orchestra / Bernard Haitink (1969-72) [4CD] {2010 Decca Edition}

Liszt - Complete Symphonic Poems. London Philharmonic Orchestra / Bernard Haitink (1969-72) [4CD] {2010 Decca Edition}


All thanks goes to the original releaser!