Subcategories

Franz Liszt - Domingo, Berliner Philharmoniker, Barenboim - Faust Symphony (1998)

Posted By: luckburz
Franz Liszt - Domingo, Berliner Philharmoniker, Barenboim - Faust Symphony (1998)

Franz Liszt - Faust Symphony (Eine Faus-Symphonie in drei Charakterbildern nach Goethe)
Berliner Philharmoniker / Placido Domingo / Daniel Barenboim
EAC+LOG+CUE | FLAC: 311 MB | Full Artwork | 5% Recovery Info
Label/Cat#: Teldec # 3984-22948-2 | Country/Year: Europe 1998
Genre: Classical | Style: Romantic

MD5 [X] CUE [X] LOG [X] INFO TEXT [X] ARTWORK [X]

selfrip [X] not my rip []

Franz Liszt - Domingo, Berliner Philharmoniker, Barenboim - Faust Symphony (1998)


Exact Audio Copy V1.0 beta 3 from 29. August 2011

EAC extraction logfile from 24. August 2012, 9:39

Placido Domingo, Berliner Philharmoniker & Daniel Barenboim / Liszt - Faust Symphony

Used drive : PIONEER BD-RW BDR-206 Adapter: 2 ID: 3

Read mode : Secure
Utilize accurate stream : Yes
Defeat audio cache : Yes
Make use of C2 pointers : No

Read offset correction : 667
Overread into Lead-In and Lead-Out : No
Fill up missing offset samples with silence : Yes
Delete leading and trailing silent blocks : No
Null samples used in CRC calculations : Yes
Used interface : Native Win32 interface for Win NT & 2000

Used output format : User Defined Encoder
Selected bitrate : 896 kBit/s
Quality : High
Add ID3 tag : No
Command line compressor : C:\Program Files\FLAC\flac.exe
Additional command line options : -5 -T "Artist=%artist%" -T "Title=%title%" -T "Album=%albumtitle%" -T "Date=%year%" -T "Tracknumber=%tracknr%" -T "Genre=%genre%" %source% -o %dest%


TOC of the extracted CD

Track | Start | Length | Start sector | End sector
––––––––––––––––––––––––––––-
1 | 0:00.00 | 30:00.37 | 0 | 135036
2 | 30:00.37 | 19:09.38 | 135037 | 221249
3 | 49:10.00 | 16:47.52 | 221250 | 296826
4 | 65:57.52 | 5:44.48 | 296827 | 322674


Range status and errors

Selected range

Filename I:\=== VINYL RIPS ===\=== EAC===\X FRESH RIP\Liszt - Domingo, Berliner Philharmoniker, Barenboim - Faust Symphony.wav

Peak level 93.6 %
Extraction speed 8.0 X
Range quality 100.0 %
Test CRC F6A296D1
Copy CRC F6A296D1
Copy OK

No errors occurred


AccurateRip summary

Track 1 accurately ripped (confidence 6) [FA39F3B6] (AR v1)
Track 2 accurately ripped (confidence 6) [F7748C20] (AR v1)
Track 3 accurately ripped (confidence 5) [E7663F9B] (AR v1)
Track 4 accurately ripped (confidence 6) [573C1AD8] (AR v1)

All tracks accurately ripped

End of status report

–– CUETools DB Plugin V2.1.3

[CTDB TOCID: pFTdehhBuP6wSLOZqATndROZ7oE-] found, Submit result: pFTdehhBuP6wSLOZqATndROZ7oE- has been confirmed
[f692de8d] (1/1) Accurately ripped


==== Log checksum 39C71A63633267BD9B85FB8EEF32579D2F908A693EFDFB11A83AB446B46641F6 ====

foobar2000 1.1.14a / Dynamic Range Meter 1.1.1
log date: 2012-09-10 12:48:26

––––––––––––––––––––––––––––––––––––––––
Analyzed: Placido Domingo, Berliner Philharmoniker & Daniel Barenboim / Liszt - Faust Symphony
––––––––––––––––––––––––––––––––––––––––

DR Peak RMS Duration Track
––––––––––––––––––––––––––––––––––––––––
DR15 -0.57 dB -21.03 dB 30:00 01-Liszt Faust-Symphonie - I. Faust¡ELento assai
DR19 -1.41 dB -28.48 dB 19:10 02-Liszt Faust-Symphonie - II. Gretchen¡EAndante soave
DR15 -0.72 dB -21.27 dB 16:48 03-Liszt Faust-Symphonie - III. Mephistopheles¡EAllegro vivace, ironico
DR13 -0.63 dB -19.37 dB 5:45 04-Liszt Faust-Symphonie - I. Andante mistico
––––––––––––––––––––––––––––––––––––––––

Number of tracks: 4
Official DR value: DR15

Samplerate: 44100 Hz
Channels: 2
Bits per sample: 16
Bitrate: 607 kbps
Codec: FLAC
================================================================================



CD Info:

Franz Liszt - Berliner Philharmoniker / Placido Domingo / Daniel Barenboim - Faust-Symphonie

Eine Faus-Symphonie in drei Charakterbildern nach Goethe

Label: Teldec
Catalog#: 3984-22948-2
Format: CD, Album
Country: Europe
Released: 1998
Genre: Classical

Tracklist:

01. Liszt Faust-Symphonie - I. Faust - Lento assai 30:00
02. Liszt Faust-Symphonie - II. Gretchen Andante soave 19:09
03. Liszt Faust-Symphonie - III. Mephistopheles Allegro vivace, ironico 16:47
04. Liszt Faust-Symphonie - I. Andante mistico 05:44

Placido Domingo, tenor
Chor der deutschen Staatsoper Berlin
Berliner Philharmoniker
Daniel Barenboim

Recording location: Philharmonie, Berlin - March & June 1998

Franz Liszt - Domingo, Berliner Philharmoniker, Barenboim - Faust Symphony (1998)


Franz Liszt's spectacular life and career could be divided by his residences. The early stardom occurred in Paris, where he associated with poets, revolutionaries and actresses, met Paganini and Chopin and, by melding their gifts, almost single-handedly forged the image of the Romantic piano hero. In 1842 he became Court Music Director at Weimar and there morphed from rock star to statesman, teaching, conducting and promoting the art of others such as Wagner while working to enhance the city's cultural profile. During this period there was also a change in his composition, from flashy showpieces to more serious fare, including masterpieces such as the B Minor Piano Sonata and the 'Faust Symphony,' based on the creation of Weimar's most famous intellectual, Johann Wolfgang von Goethe.
The symphony, longer than any previously written, is comprised of three character-study tone poems linked by recurring motives and a fourth movement, "Andante mistico," which caps the work with tenor and chorus intoning the "Chorus Mysticus" from Part Two of Faust, the same words that conclude Mahler's Eighth Symphony. Daniel Barenboim and the Berlin Philharmonic offer a rich and powerful performance of the symphony, with Placido Domingo a stellar tenor soloist. The Teldec recording is sensational. arkivmusic
Franz Liszt - Domingo, Berliner Philharmoniker, Barenboim - Faust Symphony (1998)

// classical music \\
// all of my uploads \\
________________

Download:

FLAC
Artwork
________________