Subcategories

Lone Justice - 20th Century Masters: The Millennium Collection: The Best Of Lone Justice (2003)

Posted By: muddboogers
Lone Justice - 20th Century Masters: The Millennium Collection: The Best Of Lone Justice (2003)

Lone Justice - 20th Century Masters: The Millennium Collection: The Best Of Lone Justice (2003)
EAC | FLAC Image with CUE & LOG | 44:21 mins | Scans | RAR 3% Recovery | 297 MB
Alternative Rock / Alternative Country | 2003 Geffen Records #B000071802

Lone Justice started as a Los Angeles cowpunk band in 1984 that, in a short period of time, became much more before self-destructing two years later. Unfortunately for both band and public the whole thing caved in before instant MTV-type success found them. Their records, featuring powerful vocalist Maria McKee, still sound fresh today unlike others from that genre. The Lone Justice volume of the Millennium Collection series focuses on the best of their two studio albums, Lone Justice and Shelter, and contains a terrific selection of their very best, including "Ways to Be Wicked," "Don't Toss Us Away," "Wheels," and "Sweet, Sweet Baby (I'm Falling)." Also check out the McKee sampler as part of the 20th Century Masters series. ~ Al Campbell, allmusic.com
Lone Justice @ Allmusic

Tracklist:
1. You Are The Light
2. Ways To Be Wicked
3. East Of Eden
4. Go Away Little Boy
5. Working Late
6. Don't Toss Us Away
7. Sweet, Sweet Baby (I'm Falling)
8. Shelter
9. I Found Love
10. Wheels
11. Dixie Storms
12. Drugstore Cowboy

Exact Audio Copy V1.0 beta 2 from 29. April 2011

EAC extraction logfile from 5. August 2011, 20:09

Lone Justice / 20th Century Masters: The Millennium Collection: The Best Of Lone Justice

Used drive : TDK CDRW4800B Adapter: 2 ID: 1

Read mode : Secure
Utilize accurate stream : Yes
Defeat audio cache : Yes
Make use of C2 pointers : No

Read offset correction : 6
Overread into Lead-In and Lead-Out : No
Fill up missing offset samples with silence : Yes
Delete leading and trailing silent blocks : No
Null samples used in CRC calculations : Yes
Used interface : Native Win32 interface for Win NT & 2000

Used output format : Internal WAV Routines
Sample format : 44.100 Hz; 16 Bit; Stereo


TOC of the extracted CD

Track | Start | Length | Start sector | End sector
––––––––––––––––––––––––––––-
1 | 0:00.00 | 3:59.25 | 0 | 17949
2 | 3:59.25 | 3:26.57 | 17950 | 33456
3 | 7:26.07 | 2:35.65 | 33457 | 45146
4 | 10:01.72 | 2:40.30 | 45147 | 57176
5 | 12:42.27 | 2:43.45 | 57177 | 69446
6 | 15:25.72 | 4:19.05 | 69447 | 88876
7 | 19:45.02 | 4:10.08 | 88877 | 107634
8 | 23:55.10 | 4:33.35 | 107635 | 128144
9 | 28:28.45 | 4:18.62 | 128145 | 147556
10 | 32:47.32 | 5:02.65 | 147557 | 170271
11 | 37:50.22 | 3:36.23 | 170272 | 186494
12 | 41:26.45 | 2:54.65 | 186495 | 199609


Range status and errors

Selected range

Filename E:\[# AvaxHome #]\Lone Justice - 20th Century Masters - The Millennium Collection - The Best Of Lone Justice.wav

Peak level 100.0 %
Extraction speed 7.0 X
Range quality 99.9 %
Test CRC A10F946C
Copy CRC A10F946C
Copy OK

No errors occurred


AccurateRip summary

Track 1 accurately ripped (confidence 3) [D29F2E48] (AR v1)
Track 2 accurately ripped (confidence 3) [4A605148] (AR v1)
Track 3 accurately ripped (confidence 3) [C73B0070] (AR v1)
Track 4 accurately ripped (confidence 3) [1F9DA65F] (AR v1)
Track 5 accurately ripped (confidence 3) [BCF16CF6] (AR v1)
Track 6 accurately ripped (confidence 3) [1B5EA28D] (AR v1)
Track 7 accurately ripped (confidence 3) [CB91F811] (AR v1)
Track 8 accurately ripped (confidence 3) [3EDA027A] (AR v1)
Track 9 accurately ripped (confidence 3) [00E47FDF] (AR v1)
Track 10 accurately ripped (confidence 3) [87DA8613] (AR v1)
Track 11 accurately ripped (confidence 3) [B014F7C2] (AR v1)
Track 12 accurately ripped (confidence 3) [2D934461] (AR v1)

All tracks accurately ripped

End of status report

==== Log checksum 5D3A4EAE21F6ECC859093DC960A25034899DBF9F0F109B4DF3C27B6E480F3DE2 ====