Subcategories

Los de la Trocha - Los de la Trocha (1975) {Columbia TXS 3027}

Posted By: ruskaval
Los de la Trocha - Los de la Trocha (1975) {Columbia TXS 3027}

Los de la Trocha - Los de la Trocha (1975) {Columbia TXS 3027}
EAC rip (secure mode) | FLAC (tracks)+CUE+LOG -> 232 Mb | MP3 @320 -> 87 Mb
Full Artwork @ 600 dpi (png) -> 16 Mb | 5% repair rar
© 1975 Columbia Spain | TXS 3027
Flamenco / Sevillanas / World Music / Vocal / Guitar / Latin / Western European Traditions

In 1971, as an extension of those beautiful holidays in a big house in Seville Street Imperial, which Manuel Bernal Prieto, its owner, baptized with the name "La Trocha" born this group bearing the same name that mythical tablao, always remembered. Manolo Bernal and even early eighties that is when the group broke up, what form Leonardo Lopez Roldan Antonio Ramirez Perez, Antonio Beltran Pavon "Valencina" and Francisco Terrero Ramos (guitar), incorporated after Francisco Sanchez de la Rosa. The act every day of the year in the same place, taking high-flying moves when the tablao with all the luxury Round Capuchins, made it possible that "La Trocha" reached a high levels of professionalism and experience, which could be felt not only in daily activities but the annual discography, always surprising us with songs like "It was your love", "My Thoughts" or "pure Canela" among other compositions of excellent workmanship.

Acting very few exceptions in some galas, "The La Trocha" have never moved from hisworkplace, being a pity that such a good group will not be made known across the breadth of our geography. It was usual and wonderful, see dancing in the tablao "La Trocha" Ballet Pepe Moreno compass Sevillanas Los de La Trocha, practically for most of his recording career, could have letters and compositions José Miguel Évora and Isidro Muñoz. When mismanagement, La Trocha is falling into decline, problems arise between the group and the local owner, decide to separate, protecting itself with some changes under the name "pure Canela" and after a first year of transition (Before < <the Trocha >>) recorded "As is Mandaa" in 1984, recording his second album with this new name in 1985 with the title "Let pa Fair". The following year, in 1986, returned to record another album entitled "Passionately," which would be the last record with the name of Canela Pura. In 1989 there was an attempt to reunite the group and returned to resume the old name of "Los de La Trocha", but without the fortune of yesteryear. -Traslate Google.
En el año 1971, como prolongación de aquellas fiestas hermosas en un caserón de la sevillana Calle Imperial, al que Manuel Bernal Prieto, su propietario, bautizara con el nombre de "La Trocha", nace este grupo que lleva el mismo nombre de aquél mítico tablao, siempre recordado. Con Manolo Bernal y hasta principio de los ochenta que es cuando el grupo se separa, lo forman Leonardo López Roldán, Antonio Ramírez Pérez, Antonio Beltrán Pavón "Valencina" y Francisco Terrero Ramos (guitarra), incorporándose después Francisco Sánchez de la Rosa. El actuar todos los días del año en el mismo sitio, tomando altos vuelos cuando el tablao se traslada con todo el lujo a la Ronda de Capuchinos, hizo posible que "Los de La Trocha" alcanzaran unas altas cotas de profesionalidad y experiencia, que podían palparse, no sólo en las actuaciones diarias sino en la discografía anual, sorprendiéndonos siempre con temas como "Fue tu querer", "Pensamientos míos" o "Canela pura", entre otras composiciones de excelente factura. Salvo contadísimas excepciones actuando en algunas galas, "Los de La Trocha" no se movieron nunca de su lugar de trabajo, siendo una lástima que tan buen grupo no se diera a conocer por todo lo ancho de nuestra geografía. Era habitual y maravilloso, ver bailar en el tablao de "La Trocha" al Ballet de Pepe Moreno a compás de las sevillanas de Los de La Trocha, que prácticamente durante casi toda su carrera discográfica, pudieron contar con las letras y las composiciones de José Miguel Évora e Isidro Muñoz. Cuando por una mala administración, La Trocha va cayendo en declive, surgen los problemas entre el grupo y el propietario del local, deciden separarse, amparándose con algunos cambios bajo el nombre "Canela pura", y tras un primer año de transición (Antes <<Los de la Trocha>>) grabaron "Como está mandao" en 1984, grabando su segundo disco con esta nueva denominación en 1985 con el título "Vámonos pa la Feria". Al año siguiente, en 1986, vuelven a grabar otro disco titulado "Apasionadamente", que sería el último en grabar con la denominación de Canela Pura. En el año 1989 hubo un intento de volver a reunir al grupo y volvieron a retomar el nombre antiguo de "Los de La Trocha", pero sin la fortuna de antaño.

MUSICIANS
Componentes de Los de La Trocha


Manuel Bernal Cueto. Nació en la calle Peral del Barrio de la Macarena, fundador del grupo y propietario de la taberna "La Trocha"
Leonardo López Roldán. Nacido en el Viso del Alcor, frecuentó la taberna "La Trocha" desde sus inicios, aficionándose al cante por sevillanas e incorporándose algo mas tarde al grupo
Antonio Beltrán Pavón. Conocido como "Valencina" por los aficionados al flamenco, por ser el nombre del pueblo donde nació, se inició en Amigos de Gines, pero tras la llamada de Manuel Beltrán, se incorporó de inmediato al grupo.
Antonio Ramírez Pérez. Nacido en Jerez de la Frontera, de pequeño se trasladó a sevilla y al igual que Leonardo fue cogiendo gusto al mundo de las sevillanas cuando se subía al tablao de forma desenfadada como aficionado, hasta que fue profesionalinzándose y entonces se incorporó al grupo.
Francisco Terrero Ramos. Nacido en Dos Hermanas, fue el último en incorporarse al grupo y además de cantante fue el guitarrista de Los de La Trocha.
Manolo Romano González. Empezó en el grupo "Duendes de Sevilla" y fue Guitarra del grupo "Los de La Trocha" desde sus inicios hasta 1975, después estuvo durante un breve periodo en Amigos de Gines, y también fue guitarra de "El Pali" y empezó una nueva andadura con Brumas, para terminar sacando un disco con Yunque 4 cuando ya se había retirado del mundo de las sevillanas.
Emilio Zamorano Luque y Francisco Sánchez de la Rosa

Track Listing

01 Fué Tu Querer [4:12]
02 Recuerdos De Mi Triana [3:28]
03 En El Pueblo De Ronda [3:41]
04 Cuatro Esquinas De Mi Pueblo [3:16]
05 Balcones De Mi Sevilla [4:06]
06 La Lotería [3:14]
07 Sevillanas De La Trocha [3:49]
08 A Julio Romero De Torres/Campaneros De La Hermita [3:22]
09 ¡Sevilla, Aquella Sevilla! [3:25]
10 La Noche [4:25]

Exact Audio Copy V1.0 beta 3 from 29. August 2011

EAC extraction logfile from 13. February 2016, 9:33

Los de La Trocha / Los de La Trocha

Used drive : HL-DT-STDVDRAM GSA-H10N Adapter: 0 ID: 1

Read mode : Secure
Utilize accurate stream : Yes
Defeat audio cache : Yes
Make use of C2 pointers : No

Read offset correction : 667
Overread into Lead-In and Lead-Out : No
Fill up missing offset samples with silence : Yes
Delete leading and trailing silent blocks : No
Null samples used in CRC calculations : Yes
Used interface : Native Win32 interface for Win NT & 2000
Gap handling : Appended to previous track

Used output format : User Defined Encoder
Selected bitrate : 896 kBit/s
Quality : High
Add ID3 tag : No
Command line compressor : C:\Program Files\Exact Audio Copy\Flac\flac.exe
Additional command line options : -8 -V -T "ARTIST=%artist%" -T "TITLE=%title%" -T "ALBUM=%albumtitle%" -T "DATE=%year%" -T "TRACKNUMBER=%tracknr%" -T "TOTALTRACKS=%numtracks%" -T "GENRE=%genre%" -T "ALBUMARTIST=%albumartist%" -T "ALBUM ARTIST=%albumartist%" -T "COMMENT=EAC Secure Mode, Test & Copy, AccurateRip, FLAC -8" %source%


TOC of the extracted CD

Track | Start | Length | Start sector | End sector
––––––––––––––––––––––––––––-
1 | 0:00.00 | 4:16.54 | 0 | 19253
2 | 4:16.54 | 3:32.00 | 19254 | 35153
3 | 7:48.54 | 3:46.00 | 35154 | 52103
4 | 11:34.54 | 3:19.21 | 52104 | 67049
5 | 14:54.00 | 4:09.13 | 67050 | 85737
6 | 19:03.13 | 3:15.32 | 85738 | 100394
7 | 22:18.45 | 3:47.63 | 100395 | 117482
8 | 26:06.33 | 3:24.33 | 117483 | 132815
9 | 29:30.66 | 3:27.33 | 132816 | 148373
10 | 32:58.24 | 4:25.68 | 148374 | 168316


Track 1

Filename D:\EAC-Ripeos\01 - Fue Tu Querer.wav

Pre-gap length 0:00:02.00

Peak level 88.0 %
Extraction speed 2.8 X
Track quality 100.0 %
Test CRC 6F96AB5B
Copy CRC 6F96AB5B
Track not present in AccurateRip database
Copy OK

Track 2

Filename D:\EAC-Ripeos\02 - Recuerdos De Mi Triana.wav

Pre-gap length 0:00:02.00

Peak level 71.7 %
Extraction speed 2.9 X
Track quality 100.0 %
Test CRC 4C3AC3DD
Copy CRC 4C3AC3DD
Track not present in AccurateRip database
Copy OK

Track 3

Filename D:\EAC-Ripeos\03 - En El Pueblo De Ronda.wav

Pre-gap length 0:00:02.00

Peak level 74.1 %
Extraction speed 3.2 X
Track quality 100.0 %
Test CRC F2808E70
Copy CRC F2808E70
Track not present in AccurateRip database
Copy OK

Track 4

Filename D:\EAC-Ripeos\04 - Cuatro Esquinas De Mi Pueblo.wav

Pre-gap length 0:00:02.00

Peak level 74.2 %
Extraction speed 3.4 X
Track quality 100.0 %
Test CRC 084D43B7
Copy CRC 084D43B7
Track not present in AccurateRip database
Copy OK

Track 5

Filename D:\EAC-Ripeos\05 - Balcones De Mi Sevilla.wav

Pre-gap length 0:00:02.00

Peak level 71.5 %
Extraction speed 3.6 X
Track quality 100.0 %
Test CRC 8FE540D8
Copy CRC 8FE540D8
Track not present in AccurateRip database
Copy OK

Track 6

Filename D:\EAC-Ripeos\06 - La Loteria.wav

Pre-gap length 0:00:02.00

Peak level 78.5 %
Extraction speed 3.5 X
Track quality 100.0 %
Test CRC 1662DD78
Copy CRC 1662DD78
Track not present in AccurateRip database
Copy OK

Track 7

Filename D:\EAC-Ripeos\07 - Sevillanas De La Trocha.wav

Pre-gap length 0:00:02.00

Peak level 81.2 %
Extraction speed 3.8 X
Track quality 100.0 %
Test CRC 7D136093
Copy CRC 7D136093
Track not present in AccurateRip database
Copy OK

Track 8

Filename D:\EAC-Ripeos\08 - A Julio Romero De Torres-Campanero De La Ermita.wav

Pre-gap length 0:00:02.00

Peak level 83.0 %
Extraction speed 3.9 X
Track quality 100.0 %
Test CRC D5A984B6
Copy CRC D5A984B6
Track not present in AccurateRip database
Copy OK

Track 9

Filename D:\EAC-Ripeos\09 - Sevilla, Aquella Sevilla.wav

Pre-gap length 0:00:02.00

Peak level 92.9 %
Extraction speed 3.8 X
Track quality 100.0 %
Test CRC E184A14A
Copy CRC E184A14A
Track not present in AccurateRip database
Copy OK

Track 10

Filename D:\EAC-Ripeos\10 - La Noche.wav

Pre-gap length 0:00:02.00

Peak level 85.2 %
Extraction speed 4.4 X
Track quality 100.0 %
Test CRC 24F706C7
Copy CRC 24F706C7
Track not present in AccurateRip database
Copy OK


None of the tracks are present in the AccurateRip database

No errors occurred

End of status report

==== Log checksum 57C6113522019BE56C26E89A691B0AFC7A5B305749C42E5EEE48F56BC7D9A23D ====


Los de la Trocha - Los de la Trocha (1975) {Columbia TXS 3027}

Los de la Trocha - Los de la Trocha (1975) {Columbia TXS 3027}


see more flamenco…


===