Subcategories

Les Luthiers: Los Premios Mastropiero (2006)

Posted By: Siddharta
Les Luthiers: Los Premios Mastropiero (2006)

Les Luthiers: Los Premios Mastropiero (2006)
2006 | Español | MPEG-4 AVC 628Kbps | AAC 96.0 Kbps 48.0 KHz | 100min | 574x432 | 529.2 MB
Género: Musical

Reparto: Carlos López Puccio, Jorge Maronna, Marcos Mundstock, Carlos Núñez Cortés, Daniel Rabinovich

Descripción:
Los Premios Mastropiero es un espectáculo teatral de humor musical del conjunto argentino de instrumentos informales Les Luthiers, en el que no se repite el formato clásico de sus shows anteriores. En este espectáculo el grupo simula una entrega de premios a diversos artistas del ámbito del cine, el teatro, la televesión y la música. Durante el transcurso de la ceremonia se interpretan tanto obras ternadas como composiciones del mismo Johan Sebastian Mastropiero.

Programa
Los Premios Mastropiero (ceremonia de entrega de premios)
El Desdén de Desdémona (madrigal caribeño)
Amor a primera vista (bossa libidinossa)
Tienes una mirada… (rock de alabanza)
Los Milagros de San Dádivo (cantata opus 0800-DADIVO)
Ya no te amo, Raúl (bolera)
Ella me engaña con otro (dúo de amor para varios intérpretes)
Juana Isabel (canción con forma de merengue)
Ya no eres mía (ex rock)
Valdemar y el Hechicero (comedia musical infantil para adultos)
Pepper Clemens sent the messenger, nevertheless the reverend left the herd (Ten-step)
El Explicado (Gato Didáctico)

Imágenes:
Les Luthiers: Los Premios Mastropiero (2006)

Les Luthiers: Los Premios Mastropiero (2006)

Les Luthiers: Los Premios Mastropiero (2006)


General
Format : MPEG-4
Format profile : Base Media / Version 2
Codec ID : mp42
File size : 35.4 MiB
Duration : 1h 40mn
Overall bit rate : 49.2 Kbps

Video
ID : 1
Format : AVC
Format/Info : Advanced Video Codec
Format profile : Main@L3.0
Format settings, CABAC : Yes
Format settings, ReFrames : 4 frames
Codec ID : avc1
Codec ID/Info : Advanced Video Coding
Duration : 1h 40mn
Bit rate mode : Variable
Bit rate : 628 Kbps
Width : 574 pixels
Height : 432 pixels
Display aspect ratio : 4:3
Frame rate mode : Variable
Frame rate : 23.976 fps
Minimum frame rate : 23.974 fps
Maximum frame rate : 48.754 fps
Color space : YUV
Chroma subsampling : 4:2:0
Bit depth : 8 bits
Scan type : Progressive
Bits/(Pixel*Frame) : 0.106
Stream size : 456 MiB
Writing library : x264 core 112
Encoding settings : cabac=1 / ref=2 / deblock=1:0:0 / analyse=0x1:0x111 / me=hex / subme=6 / psy=1 / psy_rd=1.00:0.00 / mixed_ref=0 / me_range=16 / chroma_me=1 / trellis=0 / 8x8dct=0 / cqm=0 / deadzone=21,11 / fast_pskip=1 / chroma_qp_offset=-2 / threads=3 / sliced_threads=0 / nr=0 / decimate=1 / interlaced=0 / constrained_intra=0 / bframes=2 / b_pyramid=2 / b_adapt=1 / b_bias=0 / direct=1 / weightb=0 / open_gop=0 / weightp=2 / keyint=240 / keyint_min=23 / scenecut=40 / intra_refresh=0 / rc_lookahead=40 / rc=abr / mbtree=1 / bitrate=628 / ratetol=1.0 / qcomp=0.60 / qpmin=3 / qpmax=51 / qpstep=4 / ip_ratio=1.40 / aq=1:1.00
Encoded date : UTC 2011-01-13 07:51:23
Tagged date : UTC 2011-01-13 08:37:06
Color primaries : BT.601-6 525, BT.1358 525, BT.1700 NTSC, SMPTE 170M
Transfer characteristics : BT.709-5, BT.1361
Matrix coefficients : BT.601-6 525, BT.1358 525, BT.1700 NTSC, SMPTE 170M

Audio
ID : 2
Format : AAC
Format/Info : Advanced Audio Codec
Format profile : LC
Codec ID : 40
Duration : 1h 40mn
Bit rate mode : Variable
Bit rate : 96.0 Kbps
Maximum bit rate : 121 Kbps
Channel(s) : 2 channels
Channel positions : Front: L R
Sampling rate : 48.0 KHz
Compression mode : Lossy
Stream size : 69.2 MiB
Encoded date : UTC 2011-01-13 07:51:23
Tagged date : UTC 2011-01-13 08:37:06


Descarga



mirror