Subcategories

Lou Donaldson - Forgotten Man (1981) {2015 Japan Timeless Jazz Master Collection Complete Series}

Posted By: ruskaval
Lou Donaldson - Forgotten Man (1981) {2015 Japan Timeless Jazz Master Collection Complete Series}

Lou Donaldson - Forgotten Man (1981) {2015 Japan Timeless Jazz Master Collection Complete Series}
EAC rip (secure mode) | FLAC (tracks)+CUE+LOG -> 265 Mb | MP3 @320 -> 93 Mb
Full Artwork @ 600 dpi (png) -> 207 Mb | 5% repair rar
© 2015 Timeless Records / Solid Records Japan / Ultra-Vibe | CDSOL-6307
Jazz / Hard Bop / Saxophone

Reissue with the latest remastering. Features original cover artwork. Comes with a descripton in Japanese. A tight quartet set from the great Lou Donaldson – cut in the early 80s and his first set for the Timeless label! Donaldson is of course unforgettable, always sounding his finest in quartet form – here doing his thing with passion with Herman Foster on piano, Geoff Fuller on bass and Victor Jones on drums. Titles include "Confirmation", "Whiskey Drinkin' Woman", "This Is Happiness", "Exactly Like You", "Don't Blame Me", "Melancholy Baby" and Donaldson's terrific centerpiece "Tracy".
Lou Donaldson - Forgotten Man (1981) {2015 Japan Timeless Jazz Master Collection Complete Series}


Ultra-Vibe INFO

Personnel:
Lou Donaldson - alto saxophone, vocals
Herman Foster - piano
Geoff Fuller - bass
Victor Jones - drums

tracklist:
01 - Confirmation
02 - Wiskey Drinkin' Woman
03 - This Is Happiness
04 - Tracy
05 - Melancholy Baby
06 - Don't Blame Me
07 - Exactly Like You

Exact Audio Copy V1.1 from 23. June 2015

EAC extraction logfile from 13. September 2015, 18:56

Lou Donaldson / Forgotten Man

Used drive : TSSTcorpCDDVDW SE-208DB Adapter: 7 ID: 0

Read mode : Secure
Utilize accurate stream : Yes
Defeat audio cache : Yes
Make use of C2 pointers : No

Read offset correction : 6
Overread into Lead-In and Lead-Out : No
Fill up missing offset samples with silence : Yes
Delete leading and trailing silent blocks : No
Null samples used in CRC calculations : Yes
Used interface : Installed external ASPI interface
Gap handling : Appended to previous track

Used output format : User Defined Encoder
Selected bitrate : 1024 kBit/s
Quality : High
Add ID3 tag : No
Command line compressor : C:\Program Files (x86)\FLAC Frontend\tools\flac.exe
Additional command line options : -8 -V -T "ARTIST=%artist%" -T "TITLE=%title%" -T "ALBUM=%albumtitle%" -T "DATE=%year%" -T "TRACKNUMBER=%tracknr%" -T "TOTALTRACKS=%numtracks%" -T "GENRE=%genre%" -T "ALBUMARTIST=%albumartist%" -T "ALBUM ARTIST=%albumartist%" -T "COMMENT=EAC Secure Mode, Test & Copy, AccurateRip, FLAC -8" %source%


TOC of the extracted CD

Track | Start | Length | Start sector | End sector
––––––––––––––––––––––––––––-
1 | 0:00.00 | 5:59.32 | 0 | 26956
2 | 5:59.32 | 5:34.01 | 26957 | 52007
3 | 11:33.33 | 3:44.36 | 52008 | 68843
4 | 15:17.69 | 4:36.74 | 68844 | 89617
5 | 19:54.68 | 6:52.40 | 89618 | 120557
6 | 26:47.33 | 5:15.00 | 120558 | 144182
7 | 32:02.33 | 6:59.72 | 144183 | 175679


Track 1

Filename M:\_EAC\Lou Donaldson - Forgotten Man (1981) [FLAC] {2015 Japan Timeless Jazz Master Collection}\01 - Confirmation.wav

Pre-gap length 0:00:02.00

Peak level 98.1 %
Extraction speed 1.1 X
Track quality 100.0 %
Test CRC 9FC642C1
Copy CRC 9FC642C1
Accurately ripped (confidence 1) [1FDD49B3] (AR v2)
Copy OK

Track 2

Filename M:\_EAC\Lou Donaldson - Forgotten Man (1981) [FLAC] {2015 Japan Timeless Jazz Master Collection}\02 - Wiskey Drinkin' Woman.wav

Peak level 98.1 %
Extraction speed 1.2 X
Track quality 100.0 %
Test CRC B0A038BA
Copy CRC B0A038BA
Accurately ripped (confidence 1) [41B7471C] (AR v2)
Copy OK

Track 3

Filename M:\_EAC\Lou Donaldson - Forgotten Man (1981) [FLAC] {2015 Japan Timeless Jazz Master Collection}\03 - This Is Happiness.wav

Peak level 98.1 %
Extraction speed 1.2 X
Track quality 100.0 %
Test CRC FB3AC035
Copy CRC FB3AC035
Accurately ripped (confidence 1) [8F78820F] (AR v2)
Copy OK

Track 4

Filename M:\_EAC\Lou Donaldson - Forgotten Man (1981) [FLAC] {2015 Japan Timeless Jazz Master Collection}\04 - Tracy.wav

Peak level 98.1 %
Extraction speed 1.4 X
Track quality 100.0 %
Test CRC DDF61960
Copy CRC DDF61960
Accurately ripped (confidence 1) [01CA5BC4] (AR v2)
Copy OK

Track 5

Filename M:\_EAC\Lou Donaldson - Forgotten Man (1981) [FLAC] {2015 Japan Timeless Jazz Master Collection}\05 - Melancholy Baby.wav

Peak level 98.1 %
Extraction speed 1.5 X
Track quality 100.0 %
Test CRC 9D4D943B
Copy CRC 9D4D943B
Accurately ripped (confidence 1) [71061E82] (AR v2)
Copy OK

Track 6

Filename M:\_EAC\Lou Donaldson - Forgotten Man (1981) [FLAC] {2015 Japan Timeless Jazz Master Collection}\06 - Don't Blame Me.wav

Peak level 98.1 %
Extraction speed 1.6 X
Track quality 100.0 %
Test CRC 528968B9
Copy CRC 528968B9
Accurately ripped (confidence 1) [0133649C] (AR v2)
Copy OK

Track 7

Filename M:\_EAC\Lou Donaldson - Forgotten Man (1981) [FLAC] {2015 Japan Timeless Jazz Master Collection}\07 - Exactly Like You.wav

Peak level 98.1 %
Extraction speed 1.5 X
Track quality 99.9 %
Test CRC FDD18151
Copy CRC FDD18151
Accurately ripped (confidence 1) [6916DC45] (AR v2)
Copy OK


All tracks accurately ripped

No errors occurred

End of status report

==== Log checksum E433D0A6D18ECF491187B354E80AD9463EBF4DDD8D65A174C17ADA7776212DEC ====


Lou Donaldson - Forgotten Man (1981) {2015 Japan Timeless Jazz Master Collection Complete Series}

Lou Donaldson - Forgotten Man (1981) {2015 Japan Timeless Jazz Master Collection Complete Series}




NEXT -> More 2015 Japan Timeless Jazz Master Collection…