Subcategories

Luis Miguel - Vivo (2000)

Posted By: SuniR
Luis Miguel - Vivo (2000)

Luis Miguel - Vivo (2000)
EAC | APE (log,image+cue) -> 545 Mb (5% Rec.)
Mp3 CBR320 Kbps -> 173 Mb (5% Rec.) | Scans included
Latin Pop, Ballad, Bolero | Label: Warner Music, #:8573-84573-2 | 01:13:27

Vivo contains 12 tracks recorded live during his 1999-2000 World Tour. Included in these tracks, are 2 never-before released rancheras: "Y" and "La Bikina", which is the first radio single to be serviced nationally. Also featured are some of Luis Miguel's best interpretations of classic hits like "El Dia Que Me Quieras", "Contigo Aprendi", "Nosotros", "Somos Novios" and many more.

Each of these classic tracks are featured in beautifully arranged medleys categorized by Romance, Segundo Romance and Romances. Produced by Luis Miguel, Vivo contains over 70 minutes of music. With a collection of Luis Miguel's most popular songs, two classic rancheras performed by Luis Miguel for the first time and attractive artwork, Vivo is set to become one of this year's most-awaited releases and an amazing collection for all Luis Miguel fans around the world. Certified Latin Platinum by the RIAA. (2/01) –Amazon.com

Tracklist:

01. Intro 01:42
02. Quiero 04:06
03. Tu, Solo Tu 03:38
04. Romance (No Me Platiques Mas / No Se Tu / La Puerta / La Barca / Inolvidable) 11:12
05. Suave 05:36
06. Segundo Romance (El Dia Que Me Quieras / Solamente Una Vez / Somos Novios / Todo Y Nada / Nosotros) 10:54
07. O Tu o Ninguna 03:18
08. Sol, Arena y Mar 03:15
09. Romances (Voy A Apagar La Luz / Contigo Aprendi / Por Debajo De La Mesa / El Reloj / Sabor A Mi / La Gloria Eres Tu / Besame Mucho) 14:47
10. Y 02:42
11. La Bikina 02:59
12. Como Es Posible Que A Mi Lado 03:58
13. Te Propongo Esta Noche 05:22

EAC extraction logfile from 1. August 2005, 5:17 for CD
Luis Miguel / Vivo

Used drive : LITE-ON LTR-52327S Adapter: 0 ID: 3
Read mode : Secure with NO C2, accurate stream, disable cache
Read offset correction : 6
Overread into Lead-In and Lead-Out : No

Used output format : Internal WAV Routines
44.100 Hz; 16 Bit; Stereo
Use compression offset : 0

Other options :
Fill up missing offset samples with silence : Yes
Delete leading and trailing silent blocks : No
Installed external ASPI interface


Range status and errors
Selected range
Filename C:\Luis Miguel - Vivo.wav

Peak level 98.8 %
Range quality 99.9 %
CRC E7F63D4C
Copy OK

No errors occured

End of status report

foobar2000 1.3.6 / Dynamic Range Meter 1.1.1
log date: 2017-08-10 20:40:50

––––––––––––––––––––––––––––––––––––––––
Analyzed: Luis Miguel / Vivo
––––––––––––––––––––––––––––––––––––––––

DR Peak RMS Duration Track
––––––––––––––––––––––––––––––––––––––––
DR10 -0.10 dB -11.77 dB 1:42 01-Intro
DR9 -0.10 dB -10.75 dB 4:06 02-Quiero
DR9 -0.10 dB -11.01 dB 3:38 03-Tu Solo Tu
DR11 -0.10 dB -13.12 dB 11:12 04-Romance
DR9 -0.10 dB -10.90 dB 5:36 05-Suave
DR10 -0.10 dB -12.92 dB 10:54 06-Segundo Romance
DR10 -0.10 dB -12.61 dB 3:18 07-O Tu O Ninguna
DR8 -0.10 dB -10.28 dB 3:15 08-Sol, Arena Y Mar
DR10 -0.10 dB -12.27 dB 14:47 09-Romances
DR10 -0.10 dB -11.47 dB 2:42 10-Y
DR10 -0.10 dB -11.19 dB 2:59 11-La Bikina
DR9 -0.10 dB -10.58 dB 3:58 12-Como Es Posible Que A Mi Lado
DR9 -0.10 dB -10.91 dB 5:22 13-Te Propongo Esta Noche
––––––––––––––––––––––––––––––––––––––––

Number of tracks: 13
Official DR value: DR10

Samplerate: 44100 Hz
Channels: 2
Bits per sample: 16
Bitrate: 987 kbps
Codec: Monkey's Audio
================================================================================

Thanks to the original releaser