Subcategories

Lyle Lovett - Anthology Volume One: Cowboy Man (2001)

Posted By: plonker
Lyle Lovett - Anthology Volume One: Cowboy Man (2001)

Lyle Lovett - Anthology Volume One: Cowboy Man (2001)
Country | EAC rip | FLAC: Tracks+CUE+EAC/log -> 318 MB | mp3@VBR V0 (252kbps) -> 96 MB
51:01 min | covers | RAR inc. 3% recovery | UL & FF | MCA Nashville 170 234-2

AMG review by Stephen Thomas Erlewine:
Check the subhead in the title – yes, this may be an anthology, but this isn't a greatest hits, it's a collection of songs that emphasize Lyle Lovett's country side and, therefore, is pitched directly at the country audience that never had much truck with him after he started singing "Stand By Your Man," playing with His Large Band, and indulging his passion for Randy Newman. In other words, it's not really representative, particularly in how it consciously avoids his status as a leader of the alt-country movement in the first Bush era. His Large Band, Joshua Judges Ruth, and I Love Everybody are entirely avoided (perhaps saved for Vol. 2), and even good portions of Lovett's country work are ignored, such as "You're Not From Texas" and the rest of The Road to Ensenada, for that matter. That's not really a complaint, but their absence feels more puzzling since two new songs are thrown in for good measure (the really good "The Truck Song," plus "San Antonio Girl"). In any regard, this is a good summary of Lovett's first two albums, containing most of the great songs from those records – "God Will," "This Old Porch," "If I Were the Man You Wanted," "If I Had a Boat," "Walk Through the Bottomland," and "LA County" are as good as music got in the '80s, and it's a pleasure to hear them in any context. Even so, it's hard to shake the nagging feeling that the whole story isn't told with this collection, and it's even harder not to notice that Lovett hasn't released a collection of original songs since 1996 – and, for the hardcore fans who are suckered in by the two new songs, it'll be hard not to wish that a full-fledged album is around the corner sometime soon.
Release date : Oct 23, 2001

Tracklist:
01 The Truck Song (03:06)
02 Cowboy Man (02:51)
03 God Will (02:15)
04 Farther Down The Line (03:07)
05 This Old Porch (04:18)
06 Why I Don't Know (02:44)
07 If I Were The Man You Wanted (03:59)
08 San Antonio Girl (03:38)
09 If I Had A Boat (03:09)
10 Give Back My Heart (03:03)
11 I Loved You Yesterday (02:59)
12 Walk Through The Bottomland (04:13)
13 L.A. County (03:19)
14 Which Way Does That Old Pony Run (04:10)
15 If You Were To Wake Up (04:09)

Exact Audio Copy V0.99 prebeta 4 from 23. January 2008

EAC extraction logfile from 11. September 2008, 16:26

Lyle Lovett / Anthology - Vol. 1: Cowboy Man

Used drive : SAMSUNG CD-R/RW SW-252S Adapter: 1 ID: 0

Read mode : Secure
Utilize accurate stream : Yes
Defeat audio cache : Yes
Make use of C2 pointers : No

Read offset correction : 6
Overread into Lead-In and Lead-Out : No
Fill up missing offset samples with silence : Yes
Delete leading and trailing silent blocks : No
Null samples used in CRC calculations : No
Used interface : Native Win32 interface for Win NT & 2000
Gap handling : Appended to previous track

Used output format : User Defined Encoder
Selected bitrate : 128 kBit/s
Quality : High
Add ID3 tag : Yes
Command line compressor : C:\Program Files\FLAC\flac.exe
Additional command line options : -V -8 -T "artist=%a" -T "title=%t" -T "album=%g" -T "date=%y" -T "tracknumber=%n" -T

"genre=%m" %s


TOC of the extracted CD

Track | Start | Length | Start sector | End sector
––––––––––––––––––––––––––––-
1 | 0:00.00 | 3:06.05 | 0 | 13954
2 | 3:06.05 | 2:51.12 | 13955 | 26791
3 | 5:57.17 | 2:15.08 | 26792 | 36924
4 | 8:12.25 | 3:06.40 | 36925 | 50914
5 | 11:18.65 | 4:17.60 | 50915 | 70249
6 | 15:36.50 | 2:43.35 | 70250 | 82509
7 | 18:20.10 | 3:59.05 | 82510 | 100439
8 | 22:19.15 | 3:37.62 | 100440 | 116776
9 | 25:57.02 | 3:09.13 | 116777 | 130964
10 | 29:06.15 | 3:02.62 | 130965 | 144676
11 | 32:09.02 | 2:59.28 | 144677 | 158129
12 | 35:08.30 | 4:13.12 | 158130 | 177116
13 | 39:21.42 | 3:18.65 | 177117 | 192031
14 | 42:40.32 | 4:10.15 | 192032 | 210796
15 | 46:50.47 | 4:09.33 | 210797 | 229504


Track 1

Filename C:\Documents and Settings\Administrator\My Documents\Lyle Lovett - Anthology - Vol. 1 Cowboy Man

(2001)\01 - The Truck Song.wav

Pre-gap length 0:00:02.00

Peak level 100.0 %
Track quality 100.0 %
Test CRC 5A596106
Copy CRC 5A596106
Accurately ripped (confidence 28) [327727B5]
Copy OK

Track 2

Filename C:\Documents and Settings\Administrator\My Documents\Lyle Lovett - Anthology - Vol. 1 Cowboy Man

(2001)\02 - Cowboy Man.wav

Pre-gap length 0:00:00.53

Peak level 100.0 %
Track quality 100.0 %
Test CRC FD3B5BAA
Copy CRC FD3B5BAA
Accurately ripped (confidence 28) [08EA5CF3]
Copy OK

Track 3

Filename C:\Documents and Settings\Administrator\My Documents\Lyle Lovett - Anthology - Vol. 1 Cowboy Man

(2001)\03 - God Will.wav

Pre-gap length 0:00:00.40

Peak level 100.0 %
Track quality 100.0 %
Test CRC FBAA37AA
Copy CRC FBAA37AA
Accurately ripped (confidence 29) [05BBBBC5]
Copy OK

Track 4

Filename C:\Documents and Settings\Administrator\My Documents\Lyle Lovett - Anthology - Vol. 1 Cowboy Man

(2001)\04 - Farther Down The Line.wav

Pre-gap length 0:00:00.84

Peak level 100.0 %
Track quality 100.0 %
Test CRC 36865997
Copy CRC 36865997
Accurately ripped (confidence 28) [828EFA60]
Copy OK

Track 5

Filename C:\Documents and Settings\Administrator\My Documents\Lyle Lovett - Anthology - Vol. 1 Cowboy Man

(2001)\05 - This Old Porch.wav

Pre-gap length 0:00:00.86

Peak level 100.0 %
Track quality 100.0 %
Test CRC 10C7B8C7
Copy CRC 10C7B8C7
Accurately ripped (confidence 28) [5F6E4FFF]
Copy OK

Track 6

Filename C:\Documents and Settings\Administrator\My Documents\Lyle Lovett - Anthology - Vol. 1 Cowboy Man

(2001)\06 - Why I Don't Know.wav

Pre-gap length 0:00:00.50

Peak level 100.0 %
Track quality 100.0 %
Test CRC 7DA56FE9
Copy CRC 7DA56FE9
Accurately ripped (confidence 28) [A51841D4]
Copy OK

Track 7

Filename C:\Documents and Settings\Administrator\My Documents\Lyle Lovett - Anthology - Vol. 1 Cowboy Man

(2001)\07 - If I Were The Man You Wanted.wav

Pre-gap length 0:00:00.06

Peak level 100.0 %
Track quality 99.9 %
Test CRC CA814F0A
Copy CRC CA814F0A
Accurately ripped (confidence 28) [B1A00B47]
Copy OK

Track 8

Filename C:\Documents and Settings\Administrator\My Documents\Lyle Lovett - Anthology - Vol. 1 Cowboy Man

(2001)\08 - San Antonio Girl.wav

Pre-gap length 0:00:00.73

Peak level 100.0 %
Track quality 99.9 %
Test CRC AFB63D9B
Copy CRC AFB63D9B
Accurately ripped (confidence 29) [D3D18916]
Copy OK

Track 9

Filename C:\Documents and Settings\Administrator\My Documents\Lyle Lovett - Anthology - Vol. 1 Cowboy Man

(2001)\09 - If I Had A Boat.wav

Pre-gap length 0:00:01.60

Peak level 100.0 %
Track quality 100.0 %
Test CRC 313EEFDF
Copy CRC 313EEFDF
Accurately ripped (confidence 28) [65E387C9]
Copy OK

Track 10

Filename C:\Documents and Settings\Administrator\My Documents\Lyle Lovett - Anthology - Vol. 1 Cowboy Man

(2001)\10 - Give Back My Heart.wav

Pre-gap length 0:00:01.40

Peak level 100.0 %
Track quality 100.0 %
Test CRC D249F327
Copy CRC D249F327
Accurately ripped (confidence 27) [FD55F53F]
Copy OK

Track 11

Filename C:\Documents and Settings\Administrator\My Documents\Lyle Lovett - Anthology - Vol. 1 Cowboy Man

(2001)\11 - I Loved You Yesterday.wav

Pre-gap length 0:00:01.33

Peak level 100.0 %
Track quality 100.0 %
Test CRC FAA75AAE
Copy CRC FAA75AAE
Accurately ripped (confidence 28) [96B34598]
Copy OK

Track 12

Filename C:\Documents and Settings\Administrator\My Documents\Lyle Lovett - Anthology - Vol. 1 Cowboy Man

(2001)\12 - Walk Through The Bottomland.wav

Pre-gap length 0:00:01.20

Peak level 100.0 %
Track quality 100.0 %
Test CRC E220FBCD
Copy CRC E220FBCD
Accurately ripped (confidence 29) [B498B5DC]
Copy OK

Track 13

Filename C:\Documents and Settings\Administrator\My Documents\Lyle Lovett - Anthology - Vol. 1 Cowboy Man

(2001)\13 - L.A. County.wav

Pre-gap length 0:00:01.09

Peak level 100.0 %
Track quality 100.0 %
Test CRC EAFBC937
Copy CRC EAFBC937
Accurately ripped (confidence 28) [D3BCCD69]
Copy OK

Track 14

Filename C:\Documents and Settings\Administrator\My Documents\Lyle Lovett - Anthology - Vol. 1 Cowboy Man

(2001)\14 - Which Way Does That Old Pony Run.wav

Pre-gap length 0:00:00.66

Peak level 100.0 %
Track quality 100.0 %
Test CRC 7149EB54
Copy CRC 7149EB54
Accurately ripped (confidence 28) [14061847]
Copy OK

Track 15

Filename C:\Documents and Settings\Administrator\My Documents\Lyle Lovett - Anthology - Vol. 1 Cowboy Man

(2001)\15 - If You Were To Wake Up.wav

Pre-gap length 0:00:00.69

Peak level 100.0 %
Track quality 100.0 %
Test CRC 3C355EAE
Copy CRC 3C355EAE
Accurately ripped (confidence 29) [154902AB]
Copy OK


All tracks accurately ripped

No errors occurred

End of status report



Not my rip ! Thanks to original ripper and uploader!!

************ download ************