Subcategories

Lynyrd Skynyrd - Second Helping (1974) [Non-Remastered] RE-UP

Posted By: perfecta
Lynyrd Skynyrd - Second Helping (1974) [Non-Remastered] RE-UP

Lynyrd Skynyrd - Second Helping (1974)
EAC-FLAC with CUE & LOG - 251 MB | Full Scans | MP3 CBR 320 Kbps - 103 MB
Southern Rock | TT - 37:25 minutes | Label: MCA Records Inc. | Catalogue # MCD 01746-2

Second Helping is the Lynyrd Skynyrd's second album, and featured their biggest hit single, "Sweet Home Alabama". This was the first Lynyrd Skynyrd album to feature the band's trademark triple guitar attack. The album reached #12 on the Billboard album charts, eventually becoming multi-platinum.

Lynyrd Skynyrd wrote the book on Southern rock with their first album, so it only made sense that they followed it for their second album, aptly titled Second Helping. Sticking with producer Al Kooper (who, after all, discovered them), the group turned out a record that replicated all the strengths of the original, but was a little tighter and a little more professional. It also revealed that the band, under the direction of songwriter Ronnie Van Zant, was developing a truly original voice. Of course, the band had already developed their own musical voice, but it was enhanced considerably by Van Zant's writing, which was at turns plainly poetic, surprisingly clever, and always revealing. Though Second Helping isn't as hard a rock record as Pronounced, it's the songs that make the record. "Sweet Home Alabama" became ubiquitous, yet it's rivaled by such terrific songs as the snide, punkish "Workin' for MCA," the Southern groove of "Don't Ask Me No Questions," the affecting "The Ballad of Curtis Loew," and "The Needle and the Spoon," a drug tale as affecting as their rival Neil Young's "Needle and the Damage Done," but much harder rocking. This is the part of Skynyrd that most people forget – they were a great band, but they were indelible because that was married to great writing. And nowhere was that more evident than on Second Helping.

– Stephen Thomas Erlewine, allmusic com

Tracks:

01. Sweet Home Alabama
02. I Need You
03. Don't Ask Me No Questions
04. Workin' For MCA
05. The Ballad Of Curtis Loew
06. Swamp Music
07. The Needle And The Spoon
08. Call Me The Breeze

Produced by Al Kooper.

- Ronnie Van Zant: lead vocals
- Gary Rossington: guitar, rhythm and acoustic guitar on "Sweet Home Alabama"
- Ed King: guitar, slide guitar, rhythm guitar and bass on "I Need You"
- Billy Powell: keyboards, piano on "Sweet Home Alabama"
- Allen Collins: guitar
- Leon Wilkeson: bass
- Bob Burns: drums except "I Need You" (drums by Mike Porter )

Exact Audio Copy V0.99 prebeta 3 from 28. July 2007

EAC extraction logfile from 4. October 2007, 21:06

Lynyrd Skynyrd / Second Helping

Used drive : PLEXTOR CD-R PREMIUM Adapter: 5 ID: 1

Read mode : Secure
Utilize accurate stream : Yes
Defeat audio cache : Yes
Make use of C2 pointers : No

Read offset correction : 30
Overread into Lead-In and Lead-Out : Yes
Fill up missing offset samples with silence : Yes
Delete leading and trailing silent blocks : No
Null samples used in CRC calculations : Yes
Used interface : Installed external ASPI interface

Used output format : Internal WAV Routines
Sample format : 44.100 Hz; 16 Bit; Stereo


TOC of the extracted CD

Track | Start | Length | Start sector | End sector
––––––––––––––––––––––––––––-
1 | 0:00.33 | 4:47.00 | 33 | 21557
2 | 4:47.33 | 6:52.50 | 21558 | 52507
3 | 11:40.08 | 3:24.35 | 52508 | 67842
4 | 15:04.43 | 4:49.40 | 67843 | 89557
5 | 19:54.08 | 4:52.50 | 89558 | 111507
6 | 24:46.58 | 3:34.00 | 111508 | 127557
7 | 28:20.58 | 3:56.25 | 127558 | 145282
8 | 32:17.08 | 5:08.42 | 145283 | 168424


Range status and errors

Selected range

Filename D:\Release\Lynyrd Skynyrd - Second Helping\Lynyrd Skynyrd - Second Helping.wav

Peak level 98.7 %
Range quality 100.0 %
Copy CRC F9601D2B
Copy OK

No errors occurred


AccurateRip summary

Track 1 cannot be verified as accurate (confidence 9) [D04ACBD6], AccurateRip returned [4A0E8F40]
Track 2 cannot be verified as accurate (confidence 7) [B4814907], AccurateRip returned [09CDCD09]
Track 3 cannot be verified as accurate (confidence 8) [288E5F96], AccurateRip returned [DBEF306B]
Track 4 cannot be verified as accurate (confidence 7) [6B827570], AccurateRip returned [ED0DF3A7]
Track 5 cannot be verified as accurate (confidence 7) [4B3492BC], AccurateRip returned [5391FAD2]
Track 6 cannot be verified as accurate (confidence 7) [25E9498E], AccurateRip returned [498E34A4]
Track 7 cannot be verified as accurate (confidence 7) [E77CEADF], AccurateRip returned [586FF8FF]
Track 8 cannot be verified as accurate (confidence 7) [0B1839CE], AccurateRip returned [FF740153]

No tracks could be verified as accurate
You may have a different pressing from the one(s) in the database

End of status report

………………………………..

Pregap length 00:00:33.
[AccurateRip ID: 000bf792-004ebbc6-7308c508] found.
Track [ CRC ] Status
01 [d04acbd6] (35/81) Accurately ripped
02 [b4814907] (34/78) Accurately ripped
03 [288e5f96] (34/79) Accurately ripped
04 [6b827570] (34/79) Accurately ripped
05 [4b3492bc] (34/79) Accurately ripped
06 [25e9498e] (34/79) Accurately ripped
07 [e77ceadf] (33/78) Accurately ripped
08 [0b1839ce] (34/79) Accurately ripped
Offsetted by 664:
01 [7759dabe] (04/81) Accurately ripped
02 [3b419d4f] (03/78) Accurately ripped
03 [b4f49cbe] (04/79) Accurately ripped
04 [9b44a574] (04/79) Accurately ripped
05 [5436a1d4] (04/79) Accurately ripped
06 [549fc4a6] (04/79) Accurately ripped
07 [bf63275f] (04/78) Accurately ripped
08 [4dce16b3] (04/79) Accurately ripped
Offsetted by 1526:
01 [4a0e8f40] (31/81) Accurately ripped
02 [09cdcd09] (31/78) Accurately ripped
03 [dbef306b] (31/79) Accurately ripped
04 [ed0df3a7] (31/79) Accurately ripped
05 [5391fad2] (31/79) Accurately ripped
06 [498e34a4] (31/79) Accurately ripped
07 [586ff8ff] (31/78) Accurately ripped
08 [ff740153] (31/79) Accurately ripped

Track Peak [ CRC32 ] [W/O NULL] [ LOG ]
– 98,7 [F9601D2B] [41897915] CRC32
01 96,5 [AA010D91] [934FD364]
02 92,4 [73498AB5] [D7D88BEC]
03 87,5 [241F2132] [54C41DB1]
04 96,7 [963B65D3] [376EAA69]
05 98,7 [1F290C73] [46F8C55F]
06 94,2 [925BEFC0] [815A7787]
07 93,1 [3ADFB424] [3CFF9065]
08 88,5 [5D643F66] [4EC51F5E]


Thanks to Gordiy!
NF
FLAC | MP3 320

UPD
FLAC | MP3 320

All Covers included.