Mac Arnold & Plate Full O' Blues - Country Man (2009)

Posted By: Domestos
Mac Arnold & Plate Full O' Blues - Country Man (2009)

Mac Arnold & Plate Full O' Blues - Country Man (2009)
EAC Rip | APE (image+.cue, log) ~ 331.63 Mb | 51:08 | Scans included
Blues | Label: Plantation #1 Productions ‎– PNO 001

After years of playing bass with Chicago legends like Muddy Waters and Otis Spann, not to mention a stint in the Soul Train house band (he was also one of the show's producers) and a contribution to the theme of Sanford and Son, Mac Arnold moved back to his South Carolina home. But you can't keep a good bluesman down, and after his friends and neighbors kept asking him to perform, he put together his first band, Mac Arnold & Plate Full o' Blues.

The musicians may be neighbors, but they're all first-rate players, and on their third album, produced by another Muddy Waters' alum, Steady Rollin' Bob Margolin, they range from folky love songs and country-blues to Chicago urban sizzlers and blues-rock shuffles. Arnold fronts the band with a warm, bluesy voice somewhere between Waters' shout and the low-down growl of Howlin' Wolf. He leaves most of the music to his bandmates, but they're up to the task. "I Ain't Sugar Coatin'" opens this up with a straightforward sardonic look at modern life, laying down the law to fathers who leave their families amidst rising prices and young men who wear their jeans so low you can see their underpants. Austin Brashier's guitar switches between rhythmic, fuzz-drenched chords and brittle lead lines. Margolin's lead guitar adds some fire to "Too Much," a blues-rock tune that sings the praises of a woman who's just too damn hot. Arnold's shouted vocal is full of gritty sexuality. Arnold's famous for his homemade gas can guitars, instruments that have a surprisingly rich sound despite their humble origin. He plays a killer hook on "Cackalacky Twang," a bouncy dance number then turns in a short, sharp solo that showcases the instrument's high but surprisingly rich, treble-drenched sound. Arnold then does Waters' "Screamin' and Cryin'' country style, with his weathered vocal and Margolin's acoustic guitar taking things back to their roots. The album closes with the instrumental "Swing Me Back Home," and Country Man has just done that. letting the boys in the band show off their chops with Brashier's aggressive, stinging guitar and Arnold's jazzy, inventive bass playing stealing the show. ~ AllMusic Review by j. poet

Track List:
01. Ain't Sugarcoatin' [0:04:11.57]
02. Farmer [0:04:30.76]
03. Tractor Song [0:03:11.60]
04. Country Man [0:04:33.18]
05. True to You [0:03:38.50]
06. Too Much [0:03:52.62]
07. If Walls Could Talk [0:03:30.65]
08. Holdin' On to Lettin' Go [0:05:05.42]
09. Scarecrow [0:04:13.14]
10. Kakalaky Twang [0:03:39.73]
11. Screamin' and Cryin' [0:03:10.64]
12. Chevy [0:03:42.61]
13. Swing Me Back Home [0:03:47.77]

Mac Arnold & Plate Full O' Blues - Country Man (2009)

Exact Audio Copy V0.99 prebeta 4 from 23. January 2008

Отчёт EAC об извлечении, выполненном 27. декабря 2009, 1:48

Mike Morgan & The Crawl / I like the way you work it

Дисковод: PLEXTOR DVDR PX-820A Adapter: 3 ID: 1

Режим чтения : Достоверность
Использование точного потока : Да
Отключение кэша аудио : Да
Использование указателей C2 : Нет

Коррекция смещения при чтении : 48
Способность читать области Lead-in и Lead-out : Нет
Заполнение пропущенных сэмплов тишиной : Да
Удаление блоков с тишиной в начале и конце : Нет
При вычислениях CRC использовались нулевые сэмплы : Да
Интерфейс : Встроенный Win32-интерфейс для Win NT/2000

Выходной формат : Внутренние WAV-операции
Формат сэмплов : 44.100 Гц; 16 бит; стерео

TOC извлечённого CD

Трек | Старт | Длительность | Начальный сектор | Конечный сектор
––––––––––––––––––––––––––––––––––-
1 | 0:00.00 | 3:12.15 | 0 | 14414
2 | 3:12.15 | 4:08.37 | 14415 | 33051
3 | 7:20.52 | 4:29.30 | 33052 | 53256
4 | 11:50.07 | 3:50.40 | 53257 | 70546
5 | 15:40.47 | 4:01.13 | 70547 | 88634
6 | 19:41.60 | 3:58.37 | 88635 | 106521
7 | 23:40.22 | 3:17.08 | 106522 | 121304
8 | 26:57.30 | 3:43.10 | 121305 | 138039
9 | 30:40.40 | 6:46.32 | 138040 | 168521
10 | 37:26.72 | 4:22.38 | 168522 | 188209
11 | 41:49.35 | 4:48.35 | 188210 | 209844
12 | 46:37.70 | 4:40.07 | 209845 | 230851
13 | 51:18.02 | 3:29.43 | 230852 | 246569

Характеристики диапазона извлечения и сообщения об ошибках

Выбранный диапазон

Имя файла D:\В ПАМЯТЬ\MIKE MORGAN\I LIKE THE WAY YOU WORK IT\Mike Morgan & The Crawl - I like the way you work it.wav

Пиковый уровень 98.8 %
Качество диапазона 100.0 %
CRC копии F3BB1EDC
Копирование… OK

Ошибок не произошло

AccurateRip: сводка

Трек 1 нет в базе данных
Трек 2 нет в базе данных
Трек 3 нет в базе данных
Трек 4 нет в базе данных
Трек 5 нет в базе данных
Трек 6 нет в базе данных
Трек 7 нет в базе данных
Трек 8 нет в базе данных
Трек 9 нет в базе данных
Трек 10 нет в базе данных
Трек 11 нет в базе данных
Трек 12 нет в базе данных
Трек 13 нет в базе данных

Ни одного трека нет в базе AccurateRip

Конец отчёта

All thanks go to the ЗУБ2007

More Music in My Blog
Follow My RSS Channel