Tags
Language
Tags

Magma - Bourges 1979 - AKT XV (Remastered) (2008/2020)

Posted By: delpotro
Magma - Bourges 1979 - AKT XV (Remastered) (2008/2020)

Magma - Bourges 1979 - AKT XV (Remastered) (2008/2020)
EAC Rip | FLAC (tracks+log+.cue) - 805 Mb | MP3 CBR 320 kbps - 266 Mb | 01:54:53
Art Rock, Jazz Rock, Avant-Rock, Zeuhl | Label: Seventh Records

This particular concert, recorded in Bourges in 1979, stands out as a moment of grace, partly due to its extreme tension and the risks taken collectively, which the audience still reminisces of to this day.

AKT 15 is the latest and long awaited document of the AKT series. While chosen for their rich and original musical content, rather than strictly technical qualities per se, these archives are a testament to the astounding talent of cult band Magma during its soon-to-be 40 years of career. This particular concert, recorded in Bourges in 1979, stands out as a moment of grace, partly due to its extreme tension and the risks taken collectively, which the audience still reminisces of to this day. And if all the musicians offer, as usual, their energy ever so in synch with their worldly reputation, AKT 15 holds a special place in the band’s history, documenting for the first time ever this particular period. All earthly fans and more recent amateurs will, without a doubt, take great pleasure in (re)discovering that exceptional performance.
Tracklist:
Disc 1 (01:01:43)
1. Entrée En Scène (01:06)
2. Rétrovision (16:42)
3. The Last Seven Minutes (10:44)
4. Urgon Gorgo (12:04)
5. Korusz XXVI (21:07)

Disc 2 (48:11)
1. Entrée En Scène (00:30)
2. Hhai (10:55)
3. Nono (08:14)
4. Mekanik Destruktiw Kommandoh (28:32)

Exact Audio Copy V1.5 from 20. February 2020

EAC extraction logfile from 23. October 2020, 5:45

Magma / Bourges 1979

Used drive : HL-DT-STBD-RE BU40N Adapter: 1 ID: 0

Read mode : Secure
Utilize accurate stream : Yes
Defeat audio cache : Yes
Make use of C2 pointers : No

Read offset correction : 6
Overread into Lead-In and Lead-Out : No
Fill up missing offset samples with silence : Yes
Delete leading and trailing silent blocks : No
Null samples used in CRC calculations : Yes
Used interface : Native Win32 interface for Win NT & 2000
Gap handling : Appended to previous track

Used output format : User Defined Encoder
Selected bitrate : 1024 kBit/s
Quality : High
Add ID3 tag : No
Command line compressor : C:\Program Files (x86)\Exact Audio Copy\Flac\flac.exe
Additional command line options : -8 -V -T "ARTIST=%artist%" -T "TITLE=%title%" -T "ALBUM=%albumtitle%" -T "DATE=%year%" -T "TRACKNUMBER=%tracknr%" -T "GENRE=%genre%" -T "PERFORMER=%albuminterpret%" -T "COMPOSER=%composer%" -T "ALBUMARTIST=%albumartist%" -T "DISCNUMBER=%cdnumber%" -T "TOTALDISCS=%totalcds%" -T "TOTALTRACKS=%numtracks%" -T "COMMENT=%comment%" %source% -o %dest%


TOC of the extracted CD

Track | Start | Length | Start sector | End sector
––––––––––––––––––––––––––––-
1 | 0:00.00 | 1:07.43 | 0 | 5067
2 | 1:07.43 | 16:45.23 | 5068 | 80465
3 | 17:52.66 | 11:11.13 | 80466 | 130803
4 | 29:04.04 | 13:30.74 | 130804 | 191627
5 | 42:35.03 | 22:11.35 | 191628 | 291487


Track 1

Filename D:\burn\Magma - Bourges 1979 (AKT15V2) (2020) (CD FLAC)\Disc 1\01 - Entrée En Scène.wav

Pre-gap length 0:00:02.00

Peak level 93.5 %
Extraction speed 1.9 X
Track quality 100.0 %
Test CRC D9CAF074
Copy CRC D9CAF074
Track not present in AccurateRip database
Copy OK

Track 2

Filename D:\burn\Magma - Bourges 1979 (AKT15V2) (2020) (CD FLAC)\Disc 1\02 - Rétrovision.wav

Peak level 93.8 %
Extraction speed 3.4 X
Track quality 99.9 %
Test CRC FC464FA9
Copy CRC FC464FA9
Track not present in AccurateRip database
Copy OK

Track 3

Filename D:\burn\Magma - Bourges 1979 (AKT15V2) (2020) (CD FLAC)\Disc 1\03 - The Last Seven Minutes.wav

Peak level 93.8 %
Extraction speed 4.3 X
Track quality 100.0 %
Test CRC B1205ACF
Copy CRC B1205ACF
Track not present in AccurateRip database
Copy OK

Track 4

Filename D:\burn\Magma - Bourges 1979 (AKT15V2) (2020) (CD FLAC)\Disc 1\04 - Urgon Gorgo.wav

Peak level 93.8 %
Extraction speed 5.1 X
Track quality 100.0 %
Test CRC DDCD6D1A
Copy CRC DDCD6D1A
Track not present in AccurateRip database
Copy OK

Track 5

Filename D:\burn\Magma - Bourges 1979 (AKT15V2) (2020) (CD FLAC)\Disc 1\05 - Korusz XXVI.wav

Peak level 93.8 %
Extraction speed 6.0 X
Track quality 100.0 %
Test CRC 941DDD88
Copy CRC 941DDD88
Track not present in AccurateRip database
Copy OK


None of the tracks are present in the AccurateRip database

No errors occurred

End of status report

–– CUETools DB Plugin V2.1.6

[CTDB TOCID: pgPh6BS8Oug6oh9OITxDl_Kgyug-] disk not present in database
Submit result: pgPh6BS8Oug6oh9OITxDl_Kgyug- has been uploaded


==== Log checksum B9DF75F04E2B89036B1E714DB7C126475483A67700A49F6519CAE965389D4E7F ====
Exact Audio Copy V1.5 from 20. February 2020

EAC extraction logfile from 23. October 2020, 10:23

Magma / Bourges 1979

Used drive : HL-DT-STBD-RE BU40N Adapter: 1 ID: 0

Read mode : Secure
Utilize accurate stream : Yes
Defeat audio cache : Yes
Make use of C2 pointers : No

Read offset correction : 6
Overread into Lead-In and Lead-Out : No
Fill up missing offset samples with silence : Yes
Delete leading and trailing silent blocks : No
Null samples used in CRC calculations : Yes
Used interface : Native Win32 interface for Win NT & 2000
Gap handling : Appended to previous track

Used output format : User Defined Encoder
Selected bitrate : 1024 kBit/s
Quality : High
Add ID3 tag : No
Command line compressor : C:\Program Files (x86)\Exact Audio Copy\Flac\flac.exe
Additional command line options : -8 -V -T "ARTIST=%artist%" -T "TITLE=%title%" -T "ALBUM=%albumtitle%" -T "DATE=%year%" -T "TRACKNUMBER=%tracknr%" -T "GENRE=%genre%" -T "PERFORMER=%albuminterpret%" -T "COMPOSER=%composer%" -T "ALBUMARTIST=%albumartist%" -T "DISCNUMBER=%cdnumber%" -T "TOTALDISCS=%totalcds%" -T "TOTALTRACKS=%numtracks%" -T "COMMENT=%comment%" %source% -o %dest%


TOC of the extracted CD

Track | Start | Length | Start sector | End sector
––––––––––––––––––––––––––––-
1 | 0:00.00 | 0:35.45 | 0 | 2669
2 | 0:35.45 | 11:17.00 | 2670 | 53444
3 | 11:52.45 | 8:34.55 | 53445 | 92049
4 | 20:27.25 | 29:40.00 | 92050 | 225549


Track 1

Filename D:\burn\Magma - Bourges 1979 (AKT15V2) (2020) (CD FLAC)\Disc 2\01 - Entrée En Scène.wav

Pre-gap length 0:00:02.00

Peak level 92.4 %
Extraction speed 0.5 X
Track quality 100.0 %
Test CRC DB0B8AED
Copy CRC DB0B8AED
Track not present in AccurateRip database
Copy OK

Track 2

Filename D:\burn\Magma - Bourges 1979 (AKT15V2) (2020) (CD FLAC)\Disc 2\02 - Hhai.wav

Peak level 93.8 %
Extraction speed 1.4 X
Track quality 100.0 %
Test CRC 808E2AF4
Copy CRC 808E2AF4
Track not present in AccurateRip database
Copy OK

Track 3

Filename D:\burn\Magma - Bourges 1979 (AKT15V2) (2020) (CD FLAC)\Disc 2\03 - Nono.wav

Peak level 93.8 %
Extraction speed 1.7 X
Track quality 100.0 %
Test CRC 9CCF4789
Copy CRC 9CCF4789
Track not present in AccurateRip database
Copy OK

Track 4

Filename D:\burn\Magma - Bourges 1979 (AKT15V2) (2020) (CD FLAC)\Disc 2\04 - Mekanik Destruktiw Kommandoh.wav

Peak level 93.9 %
Extraction speed 2.2 X
Track quality 100.0 %
Test CRC D2369677
Copy CRC D2369677
Track not present in AccurateRip database
Copy OK


None of the tracks are present in the AccurateRip database

No errors occurred

End of status report

–– CUETools DB Plugin V2.1.6

[CTDB TOCID: MwpciaNonvBlE8lFqNzYMasjHO0-] disk not present in database
Submit result: MwpciaNonvBlE8lFqNzYMasjHO0- has been uploaded


==== Log checksum 38B24FAD3217843412BE38B808E69DD1C7C36F58F5C8D746E171F1BAF5CA313E ====

Thanks to the Original ripper !