Subcategories

Gustav Mahler - Symphonie Nr. 4 „Das himmlische Leben“ (2010) {Hybrid-SACD // EAC Rip}

Posted By: luckburz
 Gustav Mahler - Symphonie Nr. 4 „Das himmlische Leben“ (2010) {Hybrid-SACD // EAC Rip}

Gustav Mahler - Symphonie Nr. 4 „Das himmlische Leben“
Gürzenich-Orchester Köln / Markus Stenz / Christiane Oelze, Soprano
EAC+LOG+CUE | FLAC: 225 MB | Full Artwork | 5% Recovery Info
Label/Cat#: Oehms Classics # OC 649 | Country/Year: Germany 2010
Genre: Classical | Style: Romantic / Modern

MD5 [X] CUE [X] LOG [X] INFO TEXT [X] ARTWORK [X]

selfrip [X] not my rip []


Exact Audio Copy V1.0 beta 3 from 29. August 2011

EAC extraction logfile from 1. October 2012, 13:02

GOC, Markus Stenz / Mahler: Sinfonie Nr. 4

Used drive : PIONEER BD-RW BDR-206 Adapter: 0 ID: 2

Read mode : Secure
Utilize accurate stream : Yes
Defeat audio cache : Yes
Make use of C2 pointers : No

Read offset correction : 667
Overread into Lead-In and Lead-Out : No
Fill up missing offset samples with silence : Yes
Delete leading and trailing silent blocks : No
Null samples used in CRC calculations : Yes
Used interface : Native Win32 interface for Win NT & 2000

Used output format : User Defined Encoder
Selected bitrate : 1024 kBit/s
Quality : High
Add ID3 tag : Yes
Command line compressor : C:\Program Files\FLAC\flac.exe
Additional command line options : -5 -T "Artist=%artist%" -T "Title=%title%" -T "Album=%albumtitle%" -T "Date=%year%" -T "Tracknumber=%tracknr%" -T "Genre=%genre%" %source% -o %dest%


TOC of the extracted CD

Track | Start | Length | Start sector | End sector
––––––––––––––––––––––––––––-
1 | 0:00.00 | 17:10.49 | 0 | 77298
2 | 17:10.49 | 9:00.31 | 77299 | 117829
3 | 26:11.05 | 19:51.36 | 117830 | 207190
4 | 46:02.41 | 8:45.35 | 207191 | 246600


Range status and errors

Selected range

Filename F:\=== VINYL RIPS ===\=== EAC===\X FRESH RIP\Mahler- GOC, Markus Stenz - Sinfonie Nr. 4.wav

Peak level 100.0 %
Extraction speed 7.2 X
Range quality 100.0 %
Test CRC 433A7BAA
Copy CRC 433A7BAA
Copy OK

No errors occurred


AccurateRip summary

Track 1 cannot be verified as accurate (confidence 2) [988075DF], AccurateRip returned [0D45B9F9] (AR v2)
Track 2 cannot be verified as accurate (confidence 2) [9E554693], AccurateRip returned [BB136495] (AR v2)
Track 3 cannot be verified as accurate (confidence 2) [64FFC980], AccurateRip returned [86FC733A] (AR v2)
Track 4 cannot be verified as accurate (confidence 2) [CC514CDA], AccurateRip returned [378177B8] (AR v2)

No tracks could be verified as accurate
You may have a different pressing from the one(s) in the database

End of status report

–– CUETools DB Plugin V2.1.3

[CTDB TOCID: B.kUVuMijholDqU3e8hRy8D0PUA-] found, Submit result: B.kUVuMijholDqU3e8hRy8D0PUA- has been confirmed
[28fe62d0] (2/2) Accurately ripped


==== Log checksum 2FC8F63B355E15B3F99FBCB05AA500B8CF7C349CB1723BD01889E1DD7C17F09C ====

foobar2000 1.1.11 / Dynamic Range Meter 1.1.1
log date: 2012-10-15 09:10:10

––––––––––––––––––––––––––––––––––––––––
Analyzed: Markus Stenz, Guerzenich-Orchestra Koeln / Mahler Symphony No. 4
––––––––––––––––––––––––––––––––––––––––

DR Peak RMS Duration Track
––––––––––––––––––––––––––––––––––––––––
DR14 -6.03 dB -26.49 dB 17:11 01-Symphony No. 4 - I. Bedächtig, nicht eilen
DR16 -11.48 dB -33.38 dB 9:00 02-Symphony No. 4 - II. In gemächlicher Bewegung, ohne Hast
DR16 -3.32 dB -26.97 dB 19:51 03-Symphony No. 4 - III. Ruhevoll, poco adagio
DR15 -6.16 dB -27.40 dB 8:45 04-Symphony No. 4 - IV. Sehr behaglich (Das himmlische Leben)
––––––––––––––––––––––––––––––––––––––––

Number of tracks: 4
Official DR value: DR15

Samplerate: 2822400 Hz / PCM Samplerate: 176400 Hz
Channels: 2
Bits per sample: 24
Bitrate: 5645 kbps
Codec: DSD64
================================================================================



CD Info:

Gustav Mahler - Symphonie Nr. 4 „Das himmlische Leben“

Gürzenich-Orchester Köln / Markus Stenz / Christiane Oelze, Soprano

Label: Oehms Classics
Catalog#: OC 649
Format: Hybrid-SACD, Album, Stereo, Multichannel
Country: Germany
Released: 2010
Genre: Classical

Tracklist:

1 - I. Bedächtig, nicht eilen 17:11
2 - II. In gemächlicher Bewegung, ohne Hast 9:00
3 - III. Ruhevoll, poco adagio 19:51
4 - IV. Sehr behaglich 8:45

Recorded August 23-26 & December 28-29, 2009, Kölner Philharmonie

Nach großem Lob für den Einstand mit der 5. Sinfonie von Gustav Mahler setzt das Gürzenich-Orchester Köln unter Gürzenich-Kapellmeister Markus Stenz seinen Mahler-Zyklus mit der 4. fort. Die Sopranpartie im letzten Satz „Das himmlische Leben“ singt Christiane Oelze. Auch die vorliegende Einspielung entstand unter Studiobedingungen, und die hervorragende Akustik der Kölner Philharmonie in Verbindung mit dem audiophilen SACD-Mastering garantiert eine Einspielung, die auch unter klangtechnischen Gesichtspunkten höchste Standards erreicht.

 Gustav Mahler - Symphonie Nr. 4 „Das himmlische Leben“ (2010) {Hybrid-SACD // EAC Rip}


review by David Hurwitz

Well now, this is more like it! After a comparatively uninteresting Fifth Symphony for this label (not to be confused with his outstanding Melbourne recording of that work for ABC Classics), Markus Stenz is back in fine Mahlerian form. His Fourth symphony is wonderfully distinctive, most notably for a freshness and spontaneity that perfectly suits the music. At the same time, however, Stenz and the Cologne players capture a remarkable amount of detail (and this is the crucial point) without ever sounding mannered or self-conscious.
Stenz’s most characterful touches may be most obvious in the scherzo and finale, both of which are taken quite swiftly by today’s standards. The result gives the former an extra jolt of sardonic humor, especially when contrasted with the much slower trio sections. In the finale, the relatively quick tempo gives the soprano’s childlike delivery almost the feel of a nursery rhyme, while the dreamy smile in her voice in the last stanza is simply exquisite.
Many of the same characterful qualities are evidenced in the first movement and Adagio as well. Stenz permits himself a very wide range of tempo, but never to the point where the music sounds excessively sectionalized or threatens to fall apart. The climaxes in the first movement are aptly ferocious, while the contrast between the Adagio’s calm first theme and its more passionate minor-key episodes is really telling. He gets through the latter movement in about 20 minutes, but emotionally speaking it feels much bigger (not longer!) still. In sum, this is simply a wonderful performance, excellently played, recorded, and sung, and it’s different enough from all of the competition to justify purchase even if you already think you own enough versions of this symphony.
 Gustav Mahler - Symphonie Nr. 4 „Das himmlische Leben“ (2010) {Hybrid-SACD // EAC Rip}
classicstoday
 Gustav Mahler - Symphonie Nr. 4 „Das himmlische Leben“ (2010) {Hybrid-SACD // EAC Rip}


The HiRes Rip can be found over here:

Gustav Mahler - Symphonie Nr. 4 „Das himmlische Leben“ (2010) {Hybrid-SACD // ISO & HiRes FLAC}

// classical music \\
// all of my uploads \\
________________

Download:

FLAC
Artwork
________________