Subcategories

Mal Waldron - Blues For Lady Day (1972) {Black Lion BLCD760193 rel 1993}

Posted By: ruskaval
Mal Waldron - Blues For Lady Day (1972) {Black Lion BLCD760193 rel 1993}

Mal Waldron - Blues For Lady Day (1972) {Black Lion BLCD760193 rel 1993}
EAC rip (secure mode) | FLAC (tracks)+CUE+LOG -> 359 Mb | MP3 @320 -> 169 Mb
Full Artwork @ 300 dpi (jpg) -> 13 Mb | 5% repair rar
© 1972, 1993 Black Lion | BLCD760193
Jazz / Post Bop / Piano

Pianist Mal Waldron was Billie Holiday's final regular accompanist and has recorded several tributes to Lady Day through the years. This CD brings back a nine-song solo tribute that consists of eight songs associated with Holiday (including "Don't Blame Me," "You're My Thrill," "Strange Fruit" and "Mean to Me") plus Waldron's "Blues for Lady Day"; the emphasis is on thoughtful (and sometimes a bit downbeat) interpretations at ballad tempoes. The reissue adds two lengthy and unrelated trio improvisations with bassist Henk Haverhoek and drummer Pierre Courbois ("A Little Bit of Miles" and "Here, There and Everywhere") that actually have nothing to do with Lady Day but do feature Mal Waldron coming up with some interesting and fresh ideas.

Personnel
Mal Waldron - piano

Henk Haverhoek - bass (10, 11)
Pierre Courbois - drums (10, 11)

Track Listing
01 - Blues For Lady Day
02 - Just Friends
03 - Don't Blame Me
04 - You Don't Know What Love Is
05 - The Man I Love
06 - You're My Thrill
07 - Strange Fruit
08 - Easy Living
09 - Mean To Me
10 - A.L.B.O.M. (A little bit of Miles)
11 - Here, There And Everywhere

Exact Audio Copy V1.3 from 2. September 2016

EAC extraction logfile from 19. November 2019, 0:14

Mal Waldron / Blues For Lady Day

Used drive : ATAPI iHAS122 F Adapter: 1 ID: 0

Read mode : Secure
Utilize accurate stream : Yes
Defeat audio cache : Yes
Make use of C2 pointers : No

Read offset correction : 6
Overread into Lead-In and Lead-Out : No
Fill up missing offset samples with silence : Yes
Delete leading and trailing silent blocks : No
Null samples used in CRC calculations : Yes
Used interface : Native Win32 interface for Win NT & 2000
Gap handling : Appended to previous track

Used output format : User Defined Encoder
Selected bitrate : 1024 kBit/s
Quality : High
Add ID3 tag : No
Command line compressor : C:\Program Files (x86)\Exact Audio Copy_v1.3\Flac\flac.exe
Additional command line options : -8 -V -T "ARTIST=%artist%" -T "TITLE=%title%" -T "ALBUM=%albumtitle%" -T "DATE=%year%" -T "TRACKNUMBER=%tracknr%" -T "TOTALTRACKS=%numtracks%" -T "GENRE=%genre%" -T "ALBUMARTIST=%albumartist%" -T "ALBUM ARTIST=%albumartist%" -T "COMMENT=EAC Secure Mode, Test & Copy, AccurateRip, FLAC -8" %source%


TOC of the extracted CD

Track | Start | Length | Start sector | End sector
––––––––––––––––––––––––––––-
1 | 0:00.00 | 3:52.28 | 0 | 17427
2 | 3:52.28 | 4:10.20 | 17428 | 36197
3 | 8:02.48 | 3:22.32 | 36198 | 51379
4 | 11:25.05 | 5:43.48 | 51380 | 77152
5 | 17:08.53 | 3:05.10 | 77153 | 91037
6 | 20:13.63 | 3:43.20 | 91038 | 107782
7 | 23:57.08 | 2:51.55 | 107783 | 120662
8 | 26:48.63 | 4:50.57 | 120663 | 142469
9 | 31:39.45 | 3:09.38 | 142470 | 156682
10 | 34:49.08 | 18:13.20 | 156683 | 238677
11 | 53:02.28 | 17:38.35 | 238678 | 318062


Track 1

Filename F:\_EAC\Mal Waldron - Blues For Lady Day (1972) [FLAC] {Black Lion BLCD760193 rel 1993}\01 - Blues For Lady Day.wav

Pre-gap length 0:00:02.00

Peak level 88.6 %
Extraction speed 3.9 X
Track quality 99.9 %
Test CRC BDB314CD
Copy CRC BDB314CD
Accurately ripped (confidence 8) [ED134F45] (AR v2)
Copy OK

Track 2

Filename F:\_EAC\Mal Waldron - Blues For Lady Day (1972) [FLAC] {Black Lion BLCD760193 rel 1993}\02 - Just Friends.wav

Pre-gap length 0:00:08.65

Peak level 72.4 %
Extraction speed 5.1 X
Track quality 100.0 %
Test CRC 924A660C
Copy CRC 924A660C
Accurately ripped (confidence 8) [2029EC66] (AR v2)
Copy OK

Track 3

Filename F:\_EAC\Mal Waldron - Blues For Lady Day (1972) [FLAC] {Black Lion BLCD760193 rel 1993}\03 - Don't Blame Me.wav

Pre-gap length 0:00:06.35

Peak level 62.0 %
Extraction speed 5.4 X
Track quality 100.0 %
Test CRC B19F96E6
Copy CRC B19F96E6
Accurately ripped (confidence 8) [63260811] (AR v2)
Copy OK

Track 4

Filename F:\_EAC\Mal Waldron - Blues For Lady Day (1972) [FLAC] {Black Lion BLCD760193 rel 1993}\04 - You Don't Know What Love Is.wav

Pre-gap length 0:00:02.67

Peak level 90.9 %
Extraction speed 5.5 X
Track quality 99.9 %
Test CRC DF8EA33C
Copy CRC DF8EA33C
Accurately ripped (confidence 8) [34F926FF] (AR v2)
Copy OK

Track 5

Filename F:\_EAC\Mal Waldron - Blues For Lady Day (1972) [FLAC] {Black Lion BLCD760193 rel 1993}\05 - The Man I Love.wav

Pre-gap length 0:00:06.65

Peak level 67.8 %
Extraction speed 6.1 X
Track quality 100.0 %
Test CRC 71B75E78
Copy CRC 71B75E78
Accurately ripped (confidence 8) [495F94E1] (AR v2)
Copy OK

Track 6

Filename F:\_EAC\Mal Waldron - Blues For Lady Day (1972) [FLAC] {Black Lion BLCD760193 rel 1993}\06 - You're My Thrill.wav

Pre-gap length 0:00:03.13

Peak level 67.5 %
Extraction speed 6.6 X
Track quality 100.0 %
Test CRC F3909996
Copy CRC F3909996
Accurately ripped (confidence 8) [C47201C1] (AR v2)
Copy OK

Track 7

Filename F:\_EAC\Mal Waldron - Blues For Lady Day (1972) [FLAC] {Black Lion BLCD760193 rel 1993}\07 - Strange Fruit.wav

Pre-gap length 0:00:02.33

Peak level 77.7 %
Extraction speed 6.5 X
Track quality 100.0 %
Test CRC 2ECF2AA3
Copy CRC 2ECF2AA3
Accurately ripped (confidence 8) [0817FD1D] (AR v2)
Copy OK

Track 8

Filename F:\_EAC\Mal Waldron - Blues For Lady Day (1972) [FLAC] {Black Lion BLCD760193 rel 1993}\08 - Easy Living.wav

Pre-gap length 0:00:03.00

Peak level 62.8 %
Extraction speed 7.3 X
Track quality 100.0 %
Test CRC F3400D78
Copy CRC F3400D78
Accurately ripped (confidence 8) [F5D7D758] (AR v2)
Copy OK

Track 9

Filename F:\_EAC\Mal Waldron - Blues For Lady Day (1972) [FLAC] {Black Lion BLCD760193 rel 1993}\09 - Mean To Me.wav

Pre-gap length 0:00:03.02

Peak level 65.3 %
Extraction speed 7.1 X
Track quality 100.0 %
Test CRC CC77362A
Copy CRC CC77362A
Accurately ripped (confidence 8) [EC5BB739] (AR v2)
Copy OK

Track 10

Filename F:\_EAC\Mal Waldron - Blues For Lady Day (1972) [FLAC] {Black Lion BLCD760193 rel 1993}\10 - A.L.B.O.M. (A little bit of Miles).wav

Pre-gap length 0:00:07.05

Peak level 98.7 %
Extraction speed 8.5 X
Track quality 99.9 %
Test CRC 0F3B527D
Copy CRC 0F3B527D
Accurately ripped (confidence 8) [F462797B] (AR v2)
Copy OK

Track 11

Filename F:\_EAC\Mal Waldron - Blues For Lady Day (1972) [FLAC] {Black Lion BLCD760193 rel 1993}\11 - Here,There And Everywhere.wav

Pre-gap length 0:00:06.28

Peak level 100.0 %
Extraction speed 10.1 X
Track quality 100.0 %
Test CRC 3BE949FE
Copy CRC 3BE949FE
Accurately ripped (confidence 8) [E86AD12C] (AR v2)
Copy OK


All tracks accurately ripped

No errors occurred

End of status report

–– CUETools DB Plugin V2.1.6

[CTDB TOCID: VpZM0l.Jt_gT6nSkZo8OxUBKEVc-] found
Submit result: VpZM0l.Jt_gT6nSkZo8OxUBKEVc- has been confirmed
Track | CTDB Status
1 | (7/7) Accurately ripped
2 | (7/7) Accurately ripped
3 | (7/7) Accurately ripped
4 | (7/7) Accurately ripped
5 | (7/7) Accurately ripped
6 | (7/7) Accurately ripped
7 | (7/7) Accurately ripped
8 | (7/7) Accurately ripped
9 | (7/7) Accurately ripped
10 | (7/7) Accurately ripped
11 | (7/7) Accurately ripped


==== Log checksum B3BD4B9793D074DFCF1B3BAC89380A96DC8B39AF0BA14C080D83B30D8F6B26D1 ====


Mal Waldron - Blues For Lady Day (1972) {Black Lion BLCD760193 rel 1993}

Mal Waldron - Blues For Lady Day (1972) {Black Lion BLCD760193 rel 1993}



===