Subcategories

Manfred Krug - (Unser Abend war) Wunderbar! Das Beste von Manfred Krug (2CD) (2016)

Posted By: Domestos
Manfred Krug - (Unser Abend war) Wunderbar! Das Beste von Manfred Krug (2CD) (2016)

Manfred Krug - (Unser Abend war) Wunderbar! Das Beste von Manfred Krug (2CD) (2016)
EAC Rip | FLAC (tracks+.cue, log) ~ 412.92 Mb (CD1) + 269.60 Mb (CD2) + 17.85 Mb (Scans) | 01:49:53
MP3 CBR 320kbps ~ 146.71 Mb (CD1) + 109.10 Mb (CD2)
Jazz, Blues, Pop | Country: Germany | Label: Sony Music - 88883710202

Although he is chiefly known as a popular German television actor, Manfred Krug has also had careers as a film actor and as a pop-jazz singer. Born in Duisburg on February 8, 1937, he relocated to East Germany in 1949 at the age of 13, where he worked in a steel factory until he began acting on stage and in films in 1956. He recorded several successful pop-jazz albums in the early '70s, often in conjunction with composer Gunther Fischer. He also began a career as a writer under the alias Clemens Kerber. Frustrated with the political climate in East Germany (he had been forbidden to perform), Krug applied for and was granted permission to move to the West German portion of Berlin in 1977. Once settled there, he continued to act but sang and recorded only occasionally, and through the 1980s and 1990s and into the 21st century he has worked primarily as an actor in various television shows. ~ Steve Leggett

Track List CD1:
01. Sonntag
02. The More I See You
03. Du bist heute wie neu
04. Sie
05. Nice Work If You Can Get It
06. Das Lied mit einem Ton (One Note Samba)
07. Copacabana
08. Guantanamera
09. Wenn's draussen grun wird
10. Gestern war der Ball
11. Als der Opa von uns ging
12. Nacht, ich traume duster
13. Das war nur ein Moment
14. Ich hab' sie heut' noch lieb (Still Crazy After All These Years)
15. Mach's gut, ich muss gehn (Baby, It's Cold Outside)
16. Unser Abend war wunderbar

Track List CD2:
01. Amiga - Die klingende Monatsschau, Marz 1964
02. Rosetta
03. My Funny Valentine
04. There Will Never Be Another You
05. Vor einem Jahr
06. Twist in der Nacht
07. Auf der Sonnenseite
08. Guten Abend, gute Nacht
09. Wenn du schlafst, mein Kind
10. Ich weiss ein Madchen
11. Es steht ein Haus in New Orleans
12. Heute abend geht ein Boot nach New York
13. Manfreds Blues
14. Der Tag beginnt (Erste Version)
15. Mame
16. Niemand liebt dich so wie ich

Manfred Krug - (Unser Abend war) Wunderbar! Das Beste von Manfred Krug (2CD) (2016)

Exact Audio Copy V1.3 from 2. September 2016

EAC extraction logfile from 14. August 2017, 17:42

Manfred Krug / (Unser Abend war) Wunderbar! Das Beste von Manfred Krug (CD 1)

Used drive : TSSTcorpCDDVDW SE-208AB Adapter: 2 ID: 0

Read mode : Secure
Utilize accurate stream : Yes
Defeat audio cache : Yes
Make use of C2 pointers : No

Read offset correction : 6
Overread into Lead-In and Lead-Out : No
Fill up missing offset samples with silence : Yes
Delete leading and trailing silent blocks : No
Null samples used in CRC calculations : Yes
Used interface : Installed external ASPI interface
Gap handling : Appended to previous track

Used output format : User Defined Encoder
Selected bitrate : 768 kBit/s
Quality : High
Add ID3 tag : No
Command line compressor : C:\Program Files (x86)\Exact Audio Copy\Flac\flac.exe
Additional command line options : -8 -V -T "ARTIST=%artist%" -T "TITLE=%title%" -T "ALBUM=%albumtitle%" -T "DATE=%year%" -T "TRACKNUMBER=%tracknr%" -T "GENRE=%genre%" -T "COMMENT=%comment%" -T "BAND=%albuminterpret%" -T "ALBUMARTIST=%albuminterpret%" -T "COMPOSER=%composer%" %haslyrics%–tag-from-file=LYRICS="%lyricsfile%"%haslyrics% -T "DISCNUMBER=%cdnumber%" -T "TOTALDISCS=%totalcds%" -T "TOTALTRACKS=%numtracks%" %hascover%–picture="%coverfile%"%hascover% %source% -o %dest%

TOC of the extracted CD

Track | Start | Length | Start sector | End sector
––––––––––––––––––––––––––––-
1 | 0:00.00 | 2:44.69 | 0 | 12368
2 | 2:44.69 | 3:49.66 | 12369 | 29609
3 | 6:34.60 | 5:01.29 | 29610 | 52213
4 | 11:36.14 | 4:29.02 | 52214 | 72390
5 | 16:05.16 | 3:31.08 | 72391 | 88223
6 | 19:36.24 | 3:31.01 | 88224 | 104049
7 | 23:07.25 | 4:35.61 | 104050 | 124735
8 | 27:43.11 | 4:03.47 | 124736 | 143007
9 | 31:46.58 | 2:19.53 | 143008 | 153485
10 | 34:06.36 | 3:01.16 | 153486 | 167076
11 | 37:07.52 | 4:01.62 | 167077 | 185213
12 | 41:09.39 | 5:33.14 | 185214 | 210202
13 | 46:42.53 | 4:35.45 | 210203 | 230872
14 | 51:18.23 | 4:51.29 | 230873 | 252726
15 | 56:09.52 | 4:18.04 | 252727 | 272080
16 | 60:27.56 | 2:42.21 | 272081 | 284251

Track 1

Filename D:\Lietotājs\Pictures\Music\Flac\01. Sonntag.wav

Pre-gap length 0:00:02.00

Peak level 99.0 %
Extraction speed 1.0 X
Track quality 100.0 %
Test CRC CBC962EF
Copy CRC CBC962EF
Accurately ripped (confidence 4) [F583D318] (AR v2)
Copy OK

Track 2

Filename D:\Lietotājs\Pictures\Music\Flac\02. The More I See You.wav

Pre-gap length 0:00:01.21

Peak level 99.0 %
Extraction speed 1.2 X
Track quality 100.0 %
Test CRC D179F189
Copy CRC D179F189
Accurately ripped (confidence 4) [F1AD5BEF] (AR v2)
Copy OK

Track 3

Filename D:\Lietotājs\Pictures\Music\Flac\03. Du bist heute wie neu.wav

Pre-gap length 0:00:02.62

Peak level 99.0 %
Extraction speed 1.4 X
Track quality 100.0 %
Test CRC 1BFB6B3C
Copy CRC 1BFB6B3C
Accurately ripped (confidence 4) [3FDC3B8C] (AR v2)
Copy OK

Track 4

Filename D:\Lietotājs\Pictures\Music\Flac\04. Sie.wav

Pre-gap length 0:00:02.42

Peak level 99.0 %
Extraction speed 1.5 X
Track quality 100.0 %
Test CRC DCC8C8C5
Copy CRC DCC8C8C5
Accurately ripped (confidence 4) [390BAD16] (AR v2)
Copy OK

Track 5

Filename D:\Lietotājs\Pictures\Music\Flac\05. Nice Work If You Can Get It.wav

Pre-gap length 0:00:01.40

Peak level 99.0 %
Extraction speed 1.5 X
Track quality 100.0 %
Test CRC AAE5F2D0
Copy CRC AAE5F2D0
Accurately ripped (confidence 4) [1428379D] (AR v2)
Copy OK

Track 6

Filename D:\Lietotājs\Pictures\Music\Flac\06. Das Lied mit einem Ton (One Note Samba).wav

Pre-gap length 0:00:02.34

Peak level 99.0 %
Extraction speed 1.6 X
Track quality 100.0 %
Test CRC 02040DBE
Copy CRC 02040DBE
Accurately ripped (confidence 4) [F1EC64D4] (AR v2)
Copy OK

Track 7

Filename D:\Lietotājs\Pictures\Music\Flac\07. Copacabana.wav

Pre-gap length 0:00:02.51

Peak level 99.0 %
Extraction speed 1.7 X
Track quality 100.0 %
Test CRC 61B799EA
Copy CRC 61B799EA
Accurately ripped (confidence 4) [5BF07144] (AR v2)
Copy OK

Track 8

Filename D:\Lietotājs\Pictures\Music\Flac\08. Guantanamera.wav

Pre-gap length 0:00:02.56

Peak level 99.0 %
Extraction speed 1.8 X
Track quality 100.0 %
Test CRC 262D7B79
Copy CRC 262D7B79
Accurately ripped (confidence 4) [AC5715DF] (AR v2)
Copy OK

Track 9

Filename D:\Lietotājs\Pictures\Music\Flac\09. Wenn's draussen grun wird.wav

Pre-gap length 0:00:01.39

Peak level 99.0 %
Extraction speed 1.7 X
Track quality 100.0 %
Test CRC 95980DE6
Copy CRC 95980DE6
Accurately ripped (confidence 4) [A607F58D] (AR v2)
Copy OK

Track 10

Filename D:\Lietotājs\Pictures\Music\Flac\10. Gestern war der Ball.wav

Pre-gap length 0:00:02.16

Peak level 99.0 %
Extraction speed 1.8 X
Track quality 100.0 %
Test CRC F6254EC2
Copy CRC F6254EC2
Accurately ripped (confidence 4) [1237600C] (AR v2)
Copy OK

Track 11

Filename D:\Lietotājs\Pictures\Music\Flac\11. Als der Opa von uns ging.wav

Pre-gap length 0:00:01.73

Peak level 99.0 %
Extraction speed 1.9 X
Track quality 100.0 %
Test CRC 1D367C04
Copy CRC 1D367C04
Accurately ripped (confidence 4) [3275A881] (AR v2)
Copy OK

Track 12

Filename D:\Lietotājs\Pictures\Music\Flac\12. Nacht, ich traume duster.wav

Pre-gap length 0:00:01.53

Peak level 99.0 %
Extraction speed 2.1 X
Track quality 100.0 %
Test CRC A962DF38
Copy CRC A962DF38
Accurately ripped (confidence 4) [8257829C] (AR v2)
Copy OK

Track 13

Filename D:\Lietotājs\Pictures\Music\Flac\13. Das war nur ein Moment.wav

Pre-gap length 0:00:02.18

Peak level 99.0 %
Extraction speed 2.1 X
Track quality 100.0 %
Test CRC 85683F8C
Copy CRC 85683F8C
Accurately ripped (confidence 4) [29880B1D] (AR v2)
Copy OK

Track 14

Filename D:\Lietotājs\Pictures\Music\Flac\14. Ich hab' sie heut' noch lieb (Still Crazy After All These Years).wav

Pre-gap length 0:00:01.15

Peak level 99.0 %
Extraction speed 2.2 X
Track quality 100.0 %
Test CRC D6587B1A
Copy CRC D6587B1A
Accurately ripped (confidence 4) [B4C671E9] (AR v2)
Copy OK

Track 15

Filename D:\Lietotājs\Pictures\Music\Flac\15. Mach's gut, ich muss gehn (Baby, It's Cold Outside).wav

Pre-gap length 0:00:02.19

Peak level 99.0 %
Extraction speed 2.3 X
Track quality 100.0 %
Test CRC BBC090B4
Copy CRC BBC090B4
Accurately ripped (confidence 4) [DAAEC29B] (AR v2)
Copy OK

Track 16

Filename D:\Lietotājs\Pictures\Music\Flac\16. Unser Abend war wunderbar.wav

Pre-gap length 0:00:02.45

Peak level 99.0 %
Extraction speed 2.1 X
Track quality 100.0 %
Test CRC 84D6AB2B
Copy CRC 84D6AB2B
Accurately ripped (confidence 4) [4F0089B9] (AR v2)
Copy OK

All tracks accurately ripped

No errors occurred

End of status report

–– CUETools DB Plugin V2.1.6

[CTDB TOCID: TgAd7tpFxhHHzwCxuAEXFzW0FqE-] found
Submit result: TgAd7tpFxhHHzwCxuAEXFzW0FqE- has been confirmed
Track | CTDB Status
1 | (18/18) Accurately ripped
2 | (18/18) Accurately ripped
3 | (18/18) Accurately ripped
4 | (18/18) Accurately ripped
5 | (17/18) Accurately ripped
6 | (18/18) Accurately ripped
7 | (18/18) Accurately ripped
8 | (17/18) Accurately ripped
9 | (18/18) Accurately ripped
10 | (18/18) Accurately ripped
11 | (18/18) Accurately ripped
12 | (18/18) Accurately ripped
13 | (18/18) Accurately ripped
14 | (18/18) Accurately ripped
15 | (17/18) Accurately ripped
16 | (18/18) Accurately ripped

==== Log checksum E9DA98D620F6BEBDEEA3FDEADC833BD1AF06DB18D4D54A0F4DE00C31E232D85C ====

Exact Audio Copy V1.3 from 2. September 2016

EAC extraction logfile from 14. August 2017, 19:16

Manfred Krug / (Unser Abend war) Wunderbar! Das Beste von Manfred Krug (CD 2)

Used drive : TSSTcorpCDDVDW SE-208AB Adapter: 2 ID: 0

Read mode : Secure
Utilize accurate stream : Yes
Defeat audio cache : Yes
Make use of C2 pointers : No

Read offset correction : 6
Overread into Lead-In and Lead-Out : No
Fill up missing offset samples with silence : Yes
Delete leading and trailing silent blocks : No
Null samples used in CRC calculations : Yes
Used interface : Installed external ASPI interface
Gap handling : Appended to previous track

Used output format : User Defined Encoder
Selected bitrate : 768 kBit/s
Quality : High
Add ID3 tag : No
Command line compressor : C:\Program Files (x86)\Exact Audio Copy\Flac\flac.exe
Additional command line options : -8 -V -T "ARTIST=%artist%" -T "TITLE=%title%" -T "ALBUM=%albumtitle%" -T "DATE=%year%" -T "TRACKNUMBER=%tracknr%" -T "GENRE=%genre%" -T "COMMENT=%comment%" -T "BAND=%albuminterpret%" -T "ALBUMARTIST=%albuminterpret%" -T "COMPOSER=%composer%" %haslyrics%–tag-from-file=LYRICS="%lyricsfile%"%haslyrics% -T "DISCNUMBER=%cdnumber%" -T "TOTALDISCS=%totalcds%" -T "TOTALTRACKS=%numtracks%" %hascover%–picture="%coverfile%"%hascover% %source% -o %dest%

TOC of the extracted CD

Track | Start | Length | Start sector | End sector
––––––––––––––––––––––––––––-
1 | 0:00.00 | 0:25.24 | 0 | 1898
2 | 0:25.24 | 2:18.62 | 1899 | 12310
3 | 2:44.11 | 2:41.39 | 12311 | 24424
4 | 5:25.50 | 3:52.13 | 24425 | 41837
5 | 9:17.63 | 3:30.61 | 41838 | 57648
6 | 12:48.49 | 2:39.72 | 57649 | 69645
7 | 15:28.46 | 2:38.22 | 69646 | 81517
8 | 18:06.68 | 0:53.69 | 81518 | 85561
9 | 19:00.62 | 3:06.37 | 85562 | 99548
10 | 22:07.24 | 2:34.04 | 99549 | 111102
11 | 24:41.28 | 4:16.13 | 111103 | 130315
12 | 28:57.41 | 2:04.51 | 130316 | 139666
13 | 31:02.17 | 5:07.30 | 139667 | 162721
14 | 36:09.47 | 3:02.22 | 162722 | 176393
15 | 39:11.69 | 3:41.70 | 176394 | 193038
16 | 42:53.64 | 3:50.09 | 193039 | 210297

Track 1

Filename D:\Lietotājs\Pictures\Music\Flac\01. Amiga - Die klingende Monatsschau, Marz 1964.wav

Pre-gap length 0:00:02.00

Peak level 79.4 %
Extraction speed 0.4 X
Track quality 100.0 %
Test CRC EE5B35F1
Copy CRC EE5B35F1
Accurately ripped (confidence 3) [F3C1465D] (AR v2)
Copy OK

Track 2

Filename D:\Lietotājs\Pictures\Music\Flac\02. Rosetta.wav

Peak level 84.8 %
Extraction speed 1.0 X
Track quality 100.0 %
Test CRC 940158A3
Copy CRC 940158A3
Accurately ripped (confidence 3) [F799C0AE] (AR v2)
Copy OK

Track 3

Filename D:\Lietotājs\Pictures\Music\Flac\03. My Funny Valentine.wav

Pre-gap length 0:00:00.32

Peak level 99.0 %
Extraction speed 1.1 X
Track quality 100.0 %
Test CRC E7B163AC
Copy CRC E7B163AC
Accurately ripped (confidence 3) [A3B612F6] (AR v2)
Copy OK

Track 4

Filename D:\Lietotājs\Pictures\Music\Flac\04. There Will Never Be Another You.wav

Pre-gap length 0:00:01.31

Peak level 99.0 %
Extraction speed 1.2 X
Track quality 100.0 %
Test CRC 56CC2D33
Copy CRC 56CC2D33
Accurately ripped (confidence 3) [5BD6A06E] (AR v2)
Copy OK

Track 5

Filename D:\Lietotājs\Pictures\Music\Flac\05. Vor einem Jahr.wav

Pre-gap length 0:00:02.10

Peak level 87.7 %
Extraction speed 1.1 X
Track quality 99.9 %
Test CRC D665C4B3
Copy CRC D665C4B3
Accurately ripped (confidence 3) [84491B82] (AR v2)
Copy OK

Track 6

Filename D:\Lietotājs\Pictures\Music\Flac\06. Twist in der Nacht.wav

Pre-gap length 0:00:01.56

Peak level 87.3 %
Extraction speed 1.3 X
Track quality 100.0 %
Test CRC 9A7ACF19
Copy CRC 9A7ACF19
Accurately ripped (confidence 2) [04BAD415] (AR v2)
Copy OK

Track 7

Filename D:\Lietotājs\Pictures\Music\Flac\07. Auf der Sonnenseite.wav

Pre-gap length 0:00:02.18

Peak level 99.0 %
Extraction speed 1.4 X
Track quality 100.0 %
Test CRC 1752F27C
Copy CRC 1752F27C
Accurately ripped (confidence 3) [11980BE4] (AR v2)
Copy OK

Track 8

Filename D:\Lietotājs\Pictures\Music\Flac\08. Guten Abend, gute Nacht.wav

Pre-gap length 0:00:01.08

Peak level 95.1 %
Extraction speed 1.0 X
Track quality 100.0 %
Test CRC BAC60E3E
Copy CRC BAC60E3E
Accurately ripped (confidence 3) [D0C41436] (AR v2)
Copy OK

Track 9

Filename D:\Lietotājs\Pictures\Music\Flac\09. Wenn du schlafst, mein Kind.wav

Pre-gap length 0:00:01.46

Peak level 99.0 %
Extraction speed 1.5 X
Track quality 100.0 %
Test CRC 7AF43CA5
Copy CRC 7AF43CA5
Accurately ripped (confidence 3) [AC93F1F9] (AR v2)
Copy OK

Track 10

Filename D:\Lietotājs\Pictures\Music\Flac\10. Ich weiss ein Madchen.wav

Pre-gap length 0:00:01.52

Peak level 99.0 %
Extraction speed 1.2 X
Track quality 99.9 %
Test CRC ED323538
Copy CRC ED323538
Accurately ripped (confidence 3) [E6DCD6B2] (AR v2)
Copy OK

Track 11

Filename D:\Lietotājs\Pictures\Music\Flac\11. Es steht ein Haus in New Orleans.wav

Pre-gap length 0:00:01.54

Peak level 99.0 %
Extraction speed 1.7 X
Track quality 100.0 %
Test CRC 1FDA9D0B
Copy CRC 1FDA9D0B
Accurately ripped (confidence 3) [2141FE40] (AR v2)
Copy OK

Track 12

Filename D:\Lietotājs\Pictures\Music\Flac\12. Heute abend geht ein Boot nach New York.wav

Pre-gap length 0:00:01.23

Peak level 99.0 %
Extraction speed 1.5 X
Track quality 100.0 %
Test CRC 1C6F5006
Copy CRC 1C6F5006
Accurately ripped (confidence 3) [C9EAAF23] (AR v2)
Copy OK

Track 13

Filename D:\Lietotājs\Pictures\Music\Flac\13. Manfreds Blues.wav

Pre-gap length 0:00:01.38

Peak level 99.0 %
Extraction speed 1.7 X
Track quality 99.9 %
Test CRC D0E558BE
Copy CRC D0E558BE
Accurately ripped (confidence 3) [1AC8614E] (AR v2)
Copy OK

Track 14

Filename D:\Lietotājs\Pictures\Music\Flac\14. Der Tag beginnt (Erste Version).wav

Pre-gap length 0:00:02.11

Peak level 99.0 %
Extraction speed 1.8 X
Track quality 100.0 %
Test CRC 17718DAF
Copy CRC 17718DAF
Accurately ripped (confidence 3) [2CB24ED3] (AR v2)
Copy OK

Track 15

Filename D:\Lietotājs\Pictures\Music\Flac\15. Mame.wav

Pre-gap length 0:00:01.49

Peak level 99.0 %
Extraction speed 1.9 X
Track quality 100.0 %
Test CRC 6EA32DA6
Copy CRC 6EA32DA6
Accurately ripped (confidence 3) [F6C3A4AD] (AR v2)
Copy OK

Track 16

Filename D:\Lietotājs\Pictures\Music\Flac\16. Niemand liebt dich so wie ich.wav

Pre-gap length 0:00:01.20

Peak level 99.0 %
Extraction speed 2.0 X
Track quality 100.0 %
Test CRC 582C2ADB
Copy CRC 582C2ADB
Accurately ripped (confidence 3) [852CE9DB] (AR v2)
Copy OK

All tracks accurately ripped

No errors occurred

End of status report

–– CUETools DB Plugin V2.1.6

[CTDB TOCID: stVsujJCvyoRMT_gEHb0X2ADtWQ-] found
Submit result: stVsujJCvyoRMT_gEHb0X2ADtWQ- has been confirmed
Track | CTDB Status
1 | (17/17) Accurately ripped
2 | (17/17) Accurately ripped
3 | (17/17) Accurately ripped
4 | (17/17) Accurately ripped
5 | (17/17) Accurately ripped
6 | (16/17) Accurately ripped
7 | (17/17) Accurately ripped
8 | (17/17) Accurately ripped
9 | (17/17) Accurately ripped
10 | (17/17) Accurately ripped
11 | (17/17) Accurately ripped
12 | (17/17) Accurately ripped
13 | (17/17) Accurately ripped
14 | (17/17) Accurately ripped
15 | (17/17) Accurately ripped
16 | (17/17) Accurately ripped

==== Log checksum E0EA9AE28F4224A54F2CFF481C7A8E944A9931D13C61F4D1A496C70C65311AC4 ====

All thanks go to the Original ripper (unknown)

More Music in My Blog
Follow My RSS Channel