Subcategories

V.A. - The time of Melissanthi by Manos Hadjidakis (2013)

Posted By: Speedyclick
V.A. - The time of Melissanthi by Manos Hadjidakis (2013)

V.A. - The time of Melissanthi by Manos Hadjidakis (2013)
EAC Rip | FLAC (image & cue & log) & mp3 @ 320 kbps | tracks: 25 | Scans | 1:04:56 | ~ 429 Mb & 219 Mb
Label: LYRA | 5% recovery record | First release: 1980 | Folk, ballads

"The time of Melissanthi" is one of the most tender works of Manos Hadjidakis. He started working on it since mid 60's and the completed album was released in 1980. This inspirational cycle of songs and instrumental pieces is dedicated by the composer to the "sacred memory of his mother" and the rich arrangement is for 3 voices, a bouzouki player, two choruses, a small millitary band, and an orchestra. The musical genius of Hadjidakis and the charismatic interpretation of Maria Farandouri and Vassilis Lekkas, create a precious gem. Nice booklet with rare photos included. Enjoy.

V.A. - The time of Melissanthi by Manos Hadjidakis (2013)

V.A. - The time of Melissanthi by Manos Hadjidakis (2013)

V.A. - The time of Melissanthi by Manos Hadjidakis (2013)

TRACKLIST
01. Vassilis Lekkas - Prologue (Prologos)
02. Orchestra - Where Is Melissanthi (Pou ine i Melissanthi)
03. Vassilis Lekkas - On The Long Asphalt Road (Sto megalo dromo apo asfalto)
04. Orchestra - On The Way For Rain (Pigenontas gia vrohi)
05. Orchestra - The Rain (I vrohi)
06. Maria Farandouri - The Face Of The Night (To prosopo tis nihtas)
07. Giorgos Mihalislis - I Was Afraid (Fovomoun)
08. Orchestra - I Was Afraid And The Silence Stifled Me (Fovomoun m' epnige i siopi)
09. Orchestra - Melissanthi's March (To emvatirio tis Melissanthis)
10. Orchestra - Charity From Heaven (Eleimosini apo ton ourano)
11. Maria Farandouri - A Wounded Bitch (Mia pligomeni skila)
12. Orchestra - Small Band On The Street (Mikri mpanta sto dromo)
13. Children Chorus - The Friend That We Lost (To filo mas pou hasame)
14. Maria Farandouri - The Final Compromise A' (O telikos simvivasmos A)
15. Chorus & Orchestra - The Final Compromise B' (O telikos simvivasmos B)
16. Maria Farandouri - Mother And Sister (Mitera ke adelfi)
17. Orchestra - Melissanthi's March (To emvatirio tis Melissanthis)
18. Vassilis Lekkas & Giorgos Mihalislis - A Clock In The Taverna (Ena roloi sto kapilio)
19. Maria Farandouri - The Mothers On The Burnt-Out Roofs (I manes stis kamenes steges)
20. Children Chorus - Mother And Sister (Mitera ke adelfi)
21. Orchestra - Dance Of Melissanthi Who Sinks Into Oblivion (Horos tis Melissanthis pou gine lismonimeni)
22. Vassilis Lekkas & Stella Gadedi - The Cold Truth (I psihri alithia)
23. Chorus - Epitaph (Epitafios)
24. Maria Farandouri & Chorus - The Forgotten Woman (I lismonimeni)
25. Orchestra - Mother And Sister (Mitera ke adelfi)

Exact Audio Copy V1.0 beta 3 from 29. August 2011

EAC extraction logfile from 3. February 2013, 3:13

Manos Hadjidakis / H Epoxi tis Melissanthis

Used drive : HL-DT-STDVDRAM GH10N Adapter: 1 ID: 1

Read mode : Secure
Utilize accurate stream : Yes
Defeat audio cache : Yes
Make use of C2 pointers : No

Read offset correction : 667
Overread into Lead-In and Lead-Out : No
Fill up missing offset samples with silence : Yes
Delete leading and trailing silent blocks : No
Null samples used in CRC calculations : Yes
Used interface : Native Win32 interface for Win NT & 2000

Used output format : User Defined Encoder
Selected bitrate : 1024 kBit/s
Quality : High
Add ID3 tag : Yes
Command line compressor : C:\Program Files\Exact Audio Copy New\Flac\flac.exe
Additional command line options : -V -5 -T "artist=%artist%" -T "title=%title%" -T "album=%albumtitle%" -T "tracknumber=%tracknr2%" -T "genre=%genre%" -5 %source%


TOC of the extracted CD

Track | Start | Length | Start sector | End sector
––––––––––––––––––––––––––––-
1 | 0:00.00 | 1:09.34 | 0 | 5208
2 | 1:09.34 | 2:57.58 | 5209 | 18541
3 | 4:07.17 | 1:16.67 | 18542 | 24308
4 | 5:24.09 | 0:46.36 | 24309 | 27794
5 | 6:10.45 | 3:09.08 | 27795 | 41977
6 | 9:19.53 | 3:27.56 | 41978 | 57558
7 | 12:47.34 | 0:33.51 | 57559 | 60084
8 | 13:21.10 | 1:38.65 | 60085 | 67499
9 | 15:00.00 | 2:11.03 | 67500 | 77327
10 | 17:11.03 | 3:41.73 | 77328 | 93975
11 | 20:53.01 | 2:47.69 | 93976 | 106569
12 | 23:40.70 | 0:44.42 | 106570 | 109911
13 | 24:25.37 | 3:52.06 | 109912 | 127317
14 | 28:17.43 | 1:48.52 | 127318 | 135469
15 | 30:06.20 | 3:12.04 | 135470 | 149873
16 | 33:18.24 | 4:03.59 | 149874 | 168157
17 | 37:22.08 | 4:11.51 | 168158 | 187033
18 | 41:33.59 | 4:37.54 | 187034 | 207862
19 | 46:11.38 | 1:52.39 | 207863 | 216301
20 | 48:04.02 | 1:19.02 | 216302 | 222228
21 | 49:23.04 | 3:51.35 | 222229 | 239588
22 | 53:14.39 | 1:24.14 | 239589 | 245902
23 | 54:38.53 | 2:57.05 | 245903 | 259182
24 | 57:35.58 | 3:50.73 | 259183 | 276505
25 | 61:26.56 | 3:29.64 | 276506 | 292244


Range status and errors

Selected range

Filename R:\EAC Rips\GREEK\Manos Hadjidakis\Manos Hadjidakis - H epoxi tis Melissanthis\Manos Hadjidakis - H Epoxi tis Melissanthis.wav

Peak level 98.8 %
Extraction speed 5.7 X
Range quality 99.9 %
Test CRC 3550738E
Copy CRC 3550738E
Copy OK

No errors occurred


AccurateRip summary

Track 1 cannot be verified as accurate (confidence 1) [43137C9D], AccurateRip returned [1AB300A7] (AR v2)
Track 2 cannot be verified as accurate (confidence 1) [A3FF40A1], AccurateRip returned [C963FD48] (AR v2)
Track 3 cannot be verified as accurate (confidence 1) [E066E302], AccurateRip returned [3668F96F] (AR v2)
Track 4 cannot be verified as accurate (confidence 1) [D06E5131], AccurateRip returned [757B3A40] (AR v2)
Track 5 cannot be verified as accurate (confidence 1) [4C98C961], AccurateRip returned [FF33FD6F] (AR v2)
Track 6 cannot be verified as accurate (confidence 1) [054F1F4F], AccurateRip returned [FE08CF4F] (AR v2)
Track 7 cannot be verified as accurate (confidence 1) [950A6377], AccurateRip returned [D5AE36F7] (AR v2)
Track 8 cannot be verified as accurate (confidence 1) [D6B5A1CE], AccurateRip returned [4E06CAF8] (AR v2)
Track 9 cannot be verified as accurate (confidence 1) [C86C3CC0], AccurateRip returned [53C98A60] (AR v2)
Track 10 cannot be verified as accurate (confidence 1) [3761EB08], AccurateRip returned [F219E67C] (AR v2)
Track 11 cannot be verified as accurate (confidence 1) [AF92B75E], AccurateRip returned [314AEA29] (AR v2)
Track 12 cannot be verified as accurate (confidence 1) [40B6D958], AccurateRip returned [83096F55] (AR v2)
Track 13 cannot be verified as accurate (confidence 1) [DFDDE229], AccurateRip returned [86C5AC33] (AR v2)
Track 14 cannot be verified as accurate (confidence 1) [83894464], AccurateRip returned [94DF9C99] (AR v2)
Track 15 cannot be verified as accurate (confidence 1) [A3580BCD], AccurateRip returned [81B350E0] (AR v2)
Track 16 cannot be verified as accurate (confidence 1) [7ABC9B1E], AccurateRip returned [706DA22E] (AR v2)
Track 17 cannot be verified as accurate (confidence 1) [86A29A9F], AccurateRip returned [9CD47460] (AR v2)
Track 18 cannot be verified as accurate (confidence 1) [F28D4A7C], AccurateRip returned [CB0D86CE] (AR v2)
Track 19 cannot be verified as accurate (confidence 1) [59177987], AccurateRip returned [A8DCB765] (AR v2)
Track 20 cannot be verified as accurate (confidence 1) [9D0C8277], AccurateRip returned [8E58C0B1] (AR v2)
Track 21 cannot be verified as accurate (confidence 1) [A5D23718], AccurateRip returned [7772C2FF] (AR v2)
Track 22 cannot be verified as accurate (confidence 1) [69698069], AccurateRip returned [AA29DAD2] (AR v2)
Track 23 cannot be verified as accurate (confidence 1) [3AB07240], AccurateRip returned [8C7FCF4A] (AR v2)
Track 24 cannot be verified as accurate (confidence 1) [C917C0BC], AccurateRip returned [55508EE4] (AR v2)
Track 25 cannot be verified as accurate (confidence 1) [F1B4BEF0], AccurateRip returned [3C6B1E18] (AR v2)

No tracks could be verified as accurate
You may have a different pressing from the one(s) in the database

End of status report

–– CUETools DB Plugin V2.1.3

[CTDB TOCID: qrlfe8qaEeNfelhDb1g2c8AjAkg-] disk not present in database, Submit result: qrlfe8qaEeNfelhDb1g2c8AjAkg- has been uploaded


==== Log checksum 1D3E90A41F0736F7DE43294F1A0AA33B5D9E8EF46C1D2F63EDE412945550EBAB ====