Subcategories

Manos Hadjidakis - Reflections with The New York Rock & Roll Ensemble (2010) [Repost]

Posted By: Speedyclick
Manos Hadjidakis - Reflections with The New York Rock & Roll Ensemble (2010) [Repost]

Manos Hadjidakis - Reflections with New York Rock & Roll Ensemble (2010)
EAC Rip | FLAC (image & cue & log) & mp3 @ 320 kbps | tracks: 10 | Scans | 37:46 | ~ 236 Mb & 104 Mb
Label: Warner Music | 5% recovery record | First release: 1970 | Rock, folk

One of the most beautiful Hadjidakis' albums, with the rock band "The New York Rock & Roll Ensemble", composed and recorded in 1969, at New York where the composer lived since 1966. The album contains 10 rock and folk melodies with english lyrics. The work has been re-released later with greek lyrics by Nikos Gatsos and also in an English rendition by the greek band "Raining Pleasure". The music of Hadjithakis is really superb with often a touch of melancholy. Enjoy.

TRACKLIST
01. Orpheus
02. The Day
03. Love Her
04. Danse Of The Dogs
05. Kemal
06. Dedication
07. The Three Answers
08. Street Song
09. Bitter Way
10. Noble Dame

Exact Audio Copy V0.99 prebeta 5 from 4. May 2009

EAC extraction logfile from 14. March 2010, 7:35

New York Rock & Roll Ensemble / Reflections

Used drive : HL-DT-STDVD-RAM GH22LP20 Adapter: 0 ID: 0

Read mode : Secure
Utilize accurate stream : Yes
Defeat audio cache : Yes
Make use of C2 pointers : No

Read offset correction : 102
Overread into Lead-In and Lead-Out : No
Fill up missing offset samples with silence : Yes
Delete leading and trailing silent blocks : No
Null samples used in CRC calculations : Yes
Used interface : Installed external ASPI interface

Used output format : User Defined Encoder
Selected bitrate : 256 kBit/s
Quality : High
Add ID3 tag : No
Command line compressor : C:\Program Files (x86)\Exact Audio Copy\FLAC\FLAC.EXE
Additional command line options : –best -V -T "ARTIST=%a" -T "TITLE=%t" -T "ALBUM=%g" -T "DATE=%y" -T "TRACKNUMBER=%n" -T "GENRE=%m" %s


TOC of the extracted CD

Track | Start | Length | Start sector | End sector
––––––––––––––––––––––––––––-
1 | 0:00.00 | 2:36.13 | 0 | 11712
2 | 2:36.13 | 4:23.71 | 11713 | 31508
3 | 7:00.09 | 4:53.04 | 31509 | 53487
4 | 11:53.13 | 3:25.64 | 53488 | 68926
5 | 15:19.02 | 4:05.36 | 68927 | 87337
6 | 19:24.38 | 2:51.19 | 87338 | 100181
7 | 22:15.57 | 3:52.11 | 100182 | 117592
8 | 26:07.68 | 3:48.53 | 117593 | 134745
9 | 29:56.46 | 4:37.51 | 134746 | 155571
10 | 34:34.22 | 3:12.18 | 155572 | 169989


Range status and errors

Selected range

Filename E:\MUSIC\EAC_Rips\New York Rock & Roll Ensemble - Reflections.wav

Peak level 96.6 %
Range quality 100.0 %
Test CRC D17FCF2E
Copy CRC D17FCF2E
Copy OK

No errors occurred


AccurateRip summary

Track 1 not present in database
Track 2 not present in database
Track 3 not present in database
Track 4 not present in database
Track 5 not present in database
Track 6 not present in database
Track 7 not present in database
Track 8 not present in database
Track 9 not present in database
Track 10 not present in database

None of the tracks are present in the AccurateRip database

End of status report

All credits go to the initial ripper/uploader gkimonas