Subcategories

Maria Emig Trio - Introducing (2016)

Posted By: Domestos
Maria Emig Trio - Introducing (2016)

Maria Emig Trio - Introducing (2016)
EAC Rip | FLAC (tracks+.cue, log) ~ 159.90 Mb | 36:42 | Cover
Vocal Jazz | Country: USA | Label: Gateway Music (5707471044599)

Maria Emig (f. 7. nov. 1984) er med base i København en veletableret sangerinde, komponist og sangunderviser. Hun optræder på venues og festivaler med sine faste orkestre og som freelancer i diverse projekter. Herudover underviser hun i sang på den københavnske musikskole Music Institute Of Copenhagen. Maria bevæger sig genremæssigt i et felt, der spænder fra standardjazz til ny kompositionsmusik med jazzede såvel som klassiske aner. Senest har hun udgivet det roste album Introducing, som bliver gæstet af blandt andre den legendariske kontrabassist Hugo Rasmussen.

Maria Emig - vocals
Tobias Dall Mikkelsen (#1-3,6-9), Hugo Rasmussen (#4,5) - bass
Bo Moller Petersen - guitar

Track List:
01. My One and Only Love (Wood-Mellin) - 5:28
02. Manha de Carnaval (Bonfa-Sigman) - 4:05
03. Never Will I Marry (Loesser) - 3:21
04. Tea for Two (Youmans-Caesar) - 5:10
05. Mister Sandman (Ballard) - 3:46
06. The Shadow of Your Smile (Mandel-Webster) - 2:52
07. Don't Get Scared (Getz-Pleasure) - 3:30
08. My Funny Valentine (Rodgers-Hart) - 3:01
09. Detour Ahead (Ellis-Frigo-Carter) - 5:29

Maria Emig Trio - Introducing (2016)

Exact Audio Copy V1.1 from 23. June 2015

EAC extraction logfile from 28. June 2016, 21:39

Maria Emig Trio / Introducing

Used drive : LITE-ON DVDRW LH-20A1S Adapter: 1 ID: 0

Read mode : Secure
Utilize accurate stream : Yes
Defeat audio cache : Yes
Make use of C2 pointers : No

Read offset correction : 6
Overread into Lead-In and Lead-Out : No
Fill up missing offset samples with silence : Yes
Delete leading and trailing silent blocks : No
Null samples used in CRC calculations : Yes
Used interface : Native Win32 interface for Win NT & 2000
Gap handling : Appended to previous track

Used output format : User Defined Encoder
Selected bitrate : 1024 kBit/s
Quality : High
Add ID3 tag : No
Command line compressor : C:\Program Files (x86)\Exact Audio Copy\Flac\flac.exe
Additional command line options : -8 -e -V -T "ARTIST=%artist%" -T "TITLE=%title%" -T "ALBUM=%albumtitle%" -T "DATE=%year%" -T "TRACKNUMBER=%tracknr%" -T "GENRE=%genre%" -T "PERFORMER=%albuminterpret%" -T "COMPOSER=%composer%" %haslyrics%–tag-from-file=LYRICS="%lyricsfile%"%haslyrics% -T "ALBUMARTIST=%albumartist%" -T "DISCNUMBER=%cdnumber%" -T "TOTALDISCS=%totalcds%" -T "TOTALTRACKS=%numtracks%" -T "COMMENT=%comment%" %source% -o %dest%


TOC of the extracted CD

Track | Start | Length | Start sector | End sector
––––––––––––––––––––––––––––-
1 | 0:00.00 | 5:27.66 | 0 | 24590
2 | 5:27.66 | 4:05.21 | 24591 | 42986
3 | 9:33.12 | 3:21.17 | 42987 | 58078
4 | 12:54.29 | 5:10.37 | 58079 | 81365
5 | 18:04.66 | 3:46.21 | 81366 | 98336
6 | 21:51.12 | 2:51.52 | 98337 | 111213
7 | 24:42.64 | 3:30.31 | 111214 | 126994
8 | 28:13.20 | 3:00.50 | 126995 | 140544
9 | 31:13.70 | 5:29.02 | 140545 | 165221


Track 1

Filename D:\EAC rips\Maria Emig Trio - Introducing (2016) [FLAC]\01 - My One and Only Love.wav

Pre-gap length 0:00:02.00

Peak level 100.0 %
Extraction speed 1.9 X
Track quality 100.0 %
Test CRC 44BF033D
Copy CRC 44BF033D
Track not present in AccurateRip database
Copy OK

Track 2

Filename D:\EAC rips\Maria Emig Trio - Introducing (2016) [FLAC]\02 - Manha De Carnaval.wav

Pre-gap length 0:00:00.37

Peak level 100.0 %
Extraction speed 2.1 X
Track quality 100.0 %
Test CRC 054D5BCE
Copy CRC 054D5BCE
Track not present in AccurateRip database
Copy OK

Track 3

Filename D:\EAC rips\Maria Emig Trio - Introducing (2016) [FLAC]\03 - Never Will I Marry.wav

Pre-gap length 0:00:00.37

Peak level 100.0 %
Extraction speed 2.2 X
Track quality 100.0 %
Test CRC 2930828B
Copy CRC 2930828B
Track not present in AccurateRip database
Copy OK

Track 4

Filename D:\EAC rips\Maria Emig Trio - Introducing (2016) [FLAC]\04 - Tea for Two (feat. Hugo Rasmussen).wav

Pre-gap length 0:00:00.37

Peak level 100.0 %
Extraction speed 2.5 X
Track quality 100.0 %
Test CRC 1D33869C
Copy CRC 1D33869C
Track not present in AccurateRip database
Copy OK

Track 5

Filename D:\EAC rips\Maria Emig Trio - Introducing (2016) [FLAC]\05 - Mister Sandman (feat. Hugo Rasmussen).wav

Pre-gap length 0:00:00.37

Peak level 100.0 %
Extraction speed 2.5 X
Track quality 100.0 %
Test CRC C474001F
Copy CRC C474001F
Track not present in AccurateRip database
Copy OK

Track 6

Filename D:\EAC rips\Maria Emig Trio - Introducing (2016) [FLAC]\06 - The Shadow of Your Smile.wav

Pre-gap length 0:00:00.37

Peak level 100.0 %
Extraction speed 2.6 X
Track quality 100.0 %
Test CRC 8D9A9BF3
Copy CRC 8D9A9BF3
Track not present in AccurateRip database
Copy OK

Track 7

Filename D:\EAC rips\Maria Emig Trio - Introducing (2016) [FLAC]\07 - Don't Get Scared.wav

Pre-gap length 0:00:00.37

Peak level 100.0 %
Extraction speed 2.7 X
Track quality 100.0 %
Test CRC B8418EE5
Copy CRC B8418EE5
Track not present in AccurateRip database
Copy OK

Track 8

Filename D:\EAC rips\Maria Emig Trio - Introducing (2016) [FLAC]\08 - My Funny Valentine.wav

Pre-gap length 0:00:00.37

Peak level 100.0 %
Extraction speed 2.8 X
Track quality 100.0 %
Test CRC B2A22756
Copy CRC B2A22756
Track not present in AccurateRip database
Copy OK

Track 9

Filename D:\EAC rips\Maria Emig Trio - Introducing (2016) [FLAC]\09 - Detour Ahead.wav

Pre-gap length 0:00:00.37

Peak level 100.0 %
Extraction speed 2.6 X
Track quality 99.9 %
Test CRC 8B199E3D
Copy CRC 8B199E3D
Track not present in AccurateRip database
Copy OK


None of the tracks are present in the AccurateRip database

No errors occurred

End of status report

–– CUETools DB Plugin V2.1.6

[CTDB TOCID: nOmxpGXktMVpBcjwZou99BVFYhg-] disk not present in database
Submit result: nOmxpGXktMVpBcjwZou99BVFYhg- has been uploaded


==== Log checksum 5816D461F92D17DF5ED2EE2B6053588F9D4B2601AC0FAB76BDB7323552CA0E5E ====

All thanks go to the redacted

More Music in My Blog
Follow My RSS Channel